&title=終(Endless)
&artist=Rephonics
&first=0.02
&des=KuSA
&lv_5=13
&inote_5=(120)
{1}
,
{8}
54,3h[8:6],7h[16:11],,,,,,
45,6h[8:5],2h[16:10],,,,,,
5-3[8:1],3,7h[8:5],,,,,4h[16:1],
4-6[8:1],6,3h[8:4],,,,6h[16:1],4h[16:1],
4-1[8:1]/5b,,6V42[4:1],,2V86[4:1],,,,
1>3[8:1],1-5[8:1],,,4p8[8:1],4v7[8:1],,,
1s5[8:1],5,,,4-7[8:1]/6-3[8:1],,,,
8<5[6:1],6>3[6:1],4>1[6:1],2-6[4:1]*<6[4:1],,,,,
5-8[8:1],,4pp6[8:1],,8v1[8:1],,6>3[8:1],,1-6[8:1],,3v1[8:1],,
6-2[8:1],,1<7[8:1],,2V46[6:1],,8p3[6:1],,7-2[8:1],,3pp4[6:1],,
2p6[8:1],,3>7[6:1],,4h[4:1],,8,8,
5v8[8:1],7,6,6,8v5[8:1],6,7,7,5v8[8:1],7,6qq3[8:3],6,8h[8:3],,,,
4v1[8:1],2,3,3,1p4[8:1],3,2,2,4v1[8:1],2,3<6[8:1],3,
2<7[8:1],2,5,5,
4/7-4[8:1],4-6[12:1],3,2,1-5[8:1],5-2[8:1],6,7,
8-2[8:1],2-7[8:1],7-3[8:1],3-6[8:1],6V41[6:1],,,,
4-1[8:1],1-6[8:1],7,5,5-8[8:1],8-3[8:1],2,4-8[8:3],4h[8:3],,,,4w8[8:1],,,,
{16}
7-1[10:1],,65,,7V53[5:1]/4,,3,3,,1,,8,8,,1/5,,2-5[8:1],,2h[4:1]/4,,,,,,
6-1[8:1],,6h[4:1]/3,,,,,,
2-5[8:1],,3/4,,2<6[5:1]/5,,6,6,,4,,3,3,,4/8,,5-1[10:1],,1w5[10:1],,
5w1[12:1],,,,,,,,
6/4,,3,,2-8[10:1]/5,,3/4,,2V46[5:1]/5,,6,6,,8,,1,1,,4/8,,
7-4[8:1],,2-5[8:1],,7-2[8:1],,2<3[4:1],,7,,,,,,,,
6-3[10:1]/1,,7/8,,1/6<2[5:1],,2,2,,4,,5,5-1[8:1],,4-7[8:1]/7,,5-2[10:1],,4,,5,,
8,8b-4[6:1],,,,,3,,3,,
3h[8:1],,4h[8:1],,5h[8:1],,6h[8:1],,2,3h[16:5],,6,7h[16:4],,,,
4v1[10:1],8<3[16:3],5,1,,,,,8,8h[16:3],,,4,4,2,6,
3h[8:1],,1h[8:1],,8h[8:1],,6h[8:1],,{24}7q5[6:1],8,1,2,3,4,5qq3[10:1]*-7[10:1],,,,,,
,,,,,,{16}1-6[10:1],1,8-5[10:1],8,1-4[10:1],,8-3[10:1],,,,,,5p8[8:1],,2,,6h[4:1],,
,,1v4[10:1],5<2[16:3],8,4,,,,,4h[8:1],,2h[8:1],,8h[8:1],,6h[8:1],,
7,5,4,4,2,4,5,5,{24}3,2,1,8,7,6,{16}5,,5,,6-8[10:1]/5,,
1-5[10:1],,4-2[10:1],,2,,4-8[8:1],,5,,7,,1,,1s5[48:8]/8,1/8z4[48:5],18,18,,,,,
{64}3b/6b,2b-6[1:3]/7b,1b/8b,,,,,,,,,,,,,,{4},,,{1},,,
{8}
12,3>6[8:4]/4,5h[2:1]/6,,,,,,78,5/6q3[2:1],3/4h[2:1],,,,,,
23,4v5[2:1]/5,6/7h[2:1],,,,,,
67,45,3/2h[4:1],,3-6[8:1],45,7bpp4[8:6],,
5-3[8:1],,5,,3-6[8:1],,3q5[8:6],,6-8[8:1],,6,,8-3[8:1],,8qq1[8:6],,
3-5[8:1],,3,,5-2[8:1],,5pp3[8:6],,2-8[8:1],,2,,8-5[8:1],,
8q1[8:6],,6>4[8:1],5,6,,3<5[8:1],4,3p2[8:6],,8<6[8:1],7,8,,5<7[8:1],6,5p4[8:6],,
2<8[8:1],1,2,,7>1[8:1],8,7p5[8:4],,3b,,,,{16}1,1,5,5,26,26,37,37,
4b/8b-4[8:1],,7/5,,8V62[16:3]/4,,2,2-8[10:1],,4,,5,5,,4/7,6,5-3[10:1],,7/8,,1/5,,2,,
1/3-8[10:1],,2/6,,3/5,,4,,5/1<6[10:1],,24,,
1V35[16:3],,5,5v3[8:1],,7,,1,1,,2/6,1,
8-4[10:1],,7/5-8[10:1]*<7[16:1],,8>2[16:1]*-3[10:1],,,,,,,,6/5,,1/2,,
4b/3-8[8:1],,1/5,,3<7[16:3]/6,,7,7v4[8:1],,1,,2,2,,3/8,,
{32}7-4[10:1],6,5,,2-5[10:1],3,4,,{16}7-2[10:1],,2,,
7<4[10:1],3>8[10:1],,5,73,,,,2/6v1[10:1],,3/5,,2/6V83[16:3],,3,3-7[10:1],,4,,
6,6-4[10:1],,
5/8-3[10:1],,6-2[10:1],,8,,6,,4,4bz8[6:1],,,,,7,,5,,
4/8p3[8:1],,1/6,,3/8V61[16:3],,1,1-3[10:1],,3-8[10:1],,5,5,,4,,
{32}7-3[10:1]/3,62,51,48,{16},,2/7V58[16:3],,8,8-2[10:1],,2p6[10:1],,4,4,,3,,
4-1[8:1]/8,,57,,4qq5[16:3]/8,,5,5-7[10:1],,7p3[10:1],,1,1,,8,,
2v8[10:1]/6v4[10:1],,4qq1[4:1]/8qq5[4:1],,26,,,,,,,,8/4,,6/2,,
3b<6[10:1]/8,,2/1,,3V51[16:3]/7,,1,1-6[10:1],,6<1[10:1],,4,4,,5,,
{32}2p6b[10:1]/6p2b[10:1],37,48,15,{16},,,,,,
1s5[6:1]/5,84,,84,5b/1b,,,,
{16}2/6>3[10:1],,7/8,,1/6V48[16:3],,8,8-3[10:1],,3^8[10:1],,5,5,,4,,
{32}7,5,6,5,6,,,,2,4,3,4,3,,,,
7,8,6,,2,1,3,,5,4,5,4,36,
,,,
{32}1-5[8:1]/8-4[8:1],27,36,4h[32:3]/5h[32:3],,,,,,,
