&title=Rubbish Sorting
&artist=Ctymax vs. NceS
&first=0
&des=absqrt
&lv_5=即
&inote_5=(128)
{1},,
{8}7!pp3[2:1]`7`A3/B3`3!qq5[2:3]*!qq5[2:3]/B7/Cf,,,,,,,,,,,,,,A6,,
{8}7bp4b[2:3]`A4/B4`4!qq8[2:1]*!qq8[2:1],,,,,,,,1b,,2,,3h[4:1],,,,
{16}2,,,,2,,,,2,,,,2,,,,
{16}1b,,,,1b,,,,1b,,,,1b,,,,
{16}A8/B8,,,,A8/B8,,,,A8/B8,,,,A8/B8,,,,
{16}A7,,,,A7,,,,A7,,,,A7`E5f/B5/B4,,,,
{16}3,,,A7,3,,A8/B8,,3,,1b,,3,,A5/B5,,3,,,A6,3,,A7,,3,,A8/B8,,3,,4b,,
{16}2,,,A5/B5,2,,A6,,2,,A8/B8,,2,,3,,2,,,4b,2,,A5/B5,,2,,A6,,A6,,,,
{16}4b,,,A7,4b,,1b,,4b,,A6,,4b,,2,,4b,,,A5/B5,4b,,A7,,4b,,1b,,4b,,A6,,
{16}1b,,,A6,1b,,4b,,1b,,A7,,1b,,3,,1b`A7,,,,1b`3,,,,1b`A6,,,,1b/4b,,,,
{16}A7`4b,,,,A7,A6,A7,A6,A7,,,,4b`3,,,,
{8}A5/B5`2,,A5/B5/1b,1b,A5/B5/A8/B8,,A5/B5/1b,,A5/B5`2,2,A5/B5/1b,1b,A5/B5`2,2,A5/B5/1b,1b,
{8}A6`3,,A6`1b,1b,A6`A8/B8,,A6`3,,A6`1b,1b,A6`3,3,A6`A8/B8,A8/B8,A6`2,2,
{8}Ch[1:2]`A7,A7,A8/B8,A8/B8,1b,1b,2,2,A7,A7,A8/B8,A8/B8,1b,1b,2,2,
{16}A7,A7,A8/B8,A8/B8,1b,1b,2,2,A7,A7,A8/B8,A8/B8,1b,1b,2,2,
{32}A7,A6,A5/B5,4bx,3,2,1bx,A8/B8,A7,A6,A5/B5,4bx,3,2,1bx,A8/B8,A7,A6,A5/B5,4bx,3,2,1bx,A8/B8,A7,A6,A5/B5,4bx,3,2,1bx,A8/B8,
{8}4!-2[8:1],,4,,4!-1b[8:1],,4b,,
{8}4!-8[8:1]*!-8[8:1],,A4/B4,,4!-7[8:1],,{32}A4,B5,B6,A7,,,,,
{8}1!-3[8:1],,1,,1!-4b[8:1],,1b,,
{8}1!-5[8:1]*!-5[8:1],,A1/B1,,1!-6[8:1],,{32}A1,B8,B7,A6,,,,,
{8}1h,,1`1!-3[0##0.2],,{16}7,,,7,,,7,,
{8}8h,,8b/8!-4b[0##0.2],,8h,,8`8!-3[0##0.2],,
{8}1h,,{32}A2,B2,B6,A6,,,,,{16}1h,,,1h,,,1h,,
{8}7h,,A7/B7/7!-5[0##0.2]*!-5[0##0.2],,7h,,7`7!-3[0##0.2],,
{8}1`1!-3[0##0.2],,A1/B1/1!-5[0##0.2]*!-5[0##0.2],,1b/1!-4b[0##0.2],,{32}A1,B8,B7,A6,,,,,
{8}1`1!-3[0##0.2],,A1/B1/1!-5[0##0.2]*!-5[0##0.2],,1b/1!-4b[0##0.2],,{32}A1,B8,B7,A6,,,,,
{8}8`8!-3[0##0.2],,A8/B8/8!-5[0##0.2]*!-5[0##0.2],,8b/8!-4b[0##0.2],,{32}A8,E8,E7,A6,,,,,
{8}8`8!-3[0##0.2],,A8/B8/8!-5[0##0.2]*!-5[0##0.2],,8b/8!-4b[0##0.2],,{32}A8,E8,E7,A6,,,,,
{8}1`1!-3[0##0.2],,8b/8!-4b[0##0.2],,A1/B1/1!-5[0##0.2]*!-5[0##0.2],,{32}A8,E8,E7,A6,,,,,
{8}1`1!-3[0##0.2],,8b/8!-4b[0##0.2],,A1/B1/1!-5[0##0.2]*!-5[0##0.2],,{32}A8,E8,E7,A6,,,,,
{8}1b/1!-4b[0##0.2],,A8/B8/8!-5[0##0.2]*!-5[0##0.2],,1`1!-3[0##0.2],,{32}A8,E8,E7,A6,,,,,
{8}A1/B1/1!-5[0##0.2]*!-5[0##0.2],,8b/8!-4b[0##0.2],,2b/2!-4b[0##0.2],,B7/A7/7!-5[0##0.2]*!-5[0##0.2],,
{1}8b/8!>8-4b[2:3],,
{16}2,,A6,,3,A7,,A7,4b,,A5/B5,,B5/5h[1:1],,,,
{4}3b/3!^1b[0##0.2],A3/B3/3!-8[0##0.2]*!-8[0##0.2],{32}A3,B3,B7,A7,,,,,{4},
{16}A7,,3,,A6,2,,2,A5/B5,,4b,,4bh[1:1],,,,
{4}A6/B6/6!^8[0##0.2]*!^8[0##0.2],6b/6!-1b[0##0.2],6`6!-2[0##0.2],{4},
{16}3,,A7,,2,A6,,A6,1b,,A8/B8,,B8/8h[1:1],,,,
{4}2b/2!^4b[0##0.2],A2/B2/2!-5[0##0.2]*!-5[0##0.2],{32}A2,B2,B6,A6,,,,,{4},
{16}A6,,2,,A7,3,,3,A8/B8,,1b,,1bh[1:1],,,,
{4}A7/B7/7!^5[0##0.2]*!^5[0##0.2],7b/7!-4b[0##0.2],7`7!-3[0##0.2],{4}2,
{16}4b,3,4b,3,A6,,3,,A5/B5,3,,3,A5/B5,,3,,
{16}4b,3,4b,3,A6,,3,,A5/B5,,2,2,A6,,3,,
{16}A5/B5,4b,A5/B5,4b,A7,,4b,,A5/B5,4b,,4b,A6,,3,,
{16}A5/B5,4b,A5/B5,4b,A7,,4b,,A5/B5,,3,3,A6,,3,,
{16}1b,2,1b,2,A7,,2,,A8/B8,2,,2,A8/B8,,2,,
{16}1b,2,1b,2,A7,,2,,A8/B8,,3,3,A7,,2,,
{16}A8/B8,1b,A8/B8,1b,A6,,1b,,A8/B8,1b,,1b,A7,,2,,
{16}A8/B8,1b,A8/B8,1b,A6,,1b,,A8/B8,,2,2,A7`C,,2,,
{16}A5/B5`3,3,3,,3,,,,3,,,,3,,,,
{16}A6`1b,A6,A6,,A6,,,,A6,,,,A6,,,,
{16}A5/B5`2,2,2,,2,,,,2,,,,2,,,,
{16}A7`3,A7,A7,,A7`4b,,,,A6`2,,,,A5/B5`1b,,2,2,
{8}2`1b,2`1b,2`A7,2`A7,2`A6,2`A6,2`4b,2`4b,
{8}3`A6,3`A6,3`1b,3`1b,3`A7,3`A7,4b`2,4b`2,
{16}3,3,4b,4b,A5/B5,A5/B5,A6,A6,3,3,4b,4b,A5/B5,A5/B5,A6,A6,
{4}2`2!v4v2^7^2[2:1],4b,,,
{16}7`7!-3[0##0.2]`2,,2,,A7/B7/7!-5[0##0.2]*!-5[0##0.2]/1b,,1b,,7`7!-3[0##0.2]`2,,2,,A7/B7/7!-5[0##0.2]*!-5[0##0.2]/1b,,1b,,
{32}A2`A8/B8,B2,B6,A6,A7,,,,{16}2b`2!-4b[0##0.2],,A8/B8,,{32}A2,B2,B6,A6,A7,,,,{16}2b`2!-4b[0##0.2],,A6,,
{16}5b/5!-1b[0##0.2]`2,,2,,{32}A5`3,E6,E7,A7,3,,,,{16}5b/5!-1b[0##0.2]`2,,2,,{32}A5`3,E6,E7,A7,3,,,,
{16}4`4!-2[0##0.2]`A6,,A5/B5,,A4/B4/4!-8[0##0.2]*!-8[0##0.2],,A6,,4`4!-2[0##0.2],,A7,,A4/B4/4!-8[0##0.2]*!-8[0##0.2],,A6,,
{32}A5`3,E6,E7,A7,2,,,,{8}8b`8!-4b[0##0.2]/1b,2,{16}4bx`3,,,4b,3,,4b,,
{8}A2/B2/2!-8[0##0.2]*!-8[0##0.2]`A7,A7,A2/B2/2!-5[0##0.2]*!-5[0##0.2]`A6,A6,A2/B2/2!-8[0##0.2]*!-8[0##0.2]`A7,A7,A2/B2/2!-5[0##0.2]*!-5[0##0.2]`A6,A6,
{32}A8`2,E8,E7,A6,3,,,,{8}5b`5!-1b[0##0.2]/4b,3,{16}1bx`2,,1b,2,,1b,2,,
{8}A3/B3/3!-5[0##0.2]*!-5[0##0.2]`A6,A6,A3/B3/3!-8[0##0.2]*!-8[0##0.2]`A7,A7,A3/B3/3!-5[0##0.2]*!-5[0##0.2]`A6,A6,A3/B3/3!-8[0##0.2]*!-8[0##0.2]`A7,A7,
{16}A7`2,,,4b,A3/B3/3!-8[0##0.2]*!-8[0##0.2],,,A5/B5,6b/6!-1b[0##0.2],,,4b,3,,3,,
{16}2,3,2,3,2,,A8/B8,,A7`A1/B1/1!-5[0##0.2]*!-5[0##0.2],,,A6,3,,4bh[4:1],,
{16},,,1b,A8/B8,,A8/B8,,2,,,A7,A2/B2/2!-8[0##0.2]*!-8[0##0.2],,A5/B5,,
{16}3,4b,,4b`2,,1b,1b,,3,4b,,A5/B5`2,,1b,1b,,
{16}2,3,2,3,2,,,A5/B5,6b/6!-1b[0##0.2],,,4b,A3/B3/3!-8[0##0.2]*!-8[0##0.2],,A6,,
{16}4b,1b,,1b,4b,,A5/B5`2,,A6`A3/B3/3!-5[0##0.2]*!-5[0##0.2],,,A7,A5/B5,,A8/B8,,
{16}2,1b,2,1b,2,,2,,A5/B5`3,,,A5/B5,A3/B3/3!-8[0##0.2]*!-8[0##0.2],,A6,,
{16}3,4b,,4b`2,,1b,1b,,3,4b,,A5/B5`2,,1b,1b,,
{1}A8/B8/A2/B2/8!<3v5[2:5]/2!<3v5[2:5],,,,E
