&title=Have a Nice Day
&artist=WORLD ORDER
&first=1.54
&des=Tail_R
&lv_5=13
&inote_5=(137.05)
{1},
{8}3h[4:5],,5,,5,,6,6,
{8},7,7,,8/2,,8/2,,
{8}6h[4:5],,4,,4,,3,3,
{8},2,2,,1/7,,1/7,,
{8}2h[4:5],,8,,8,,7,7,
{8},6,6,,5/3,,5/3,,
{8}7h[4:5],,1,,1,,2,2,
{8},3,2,1,8w4[8:1],,,,
{8}1/2h[4:1],4,3,2h[4:1],4,3,2h[4:1],4,
{8}3,2h[4:1],4,3,2-5[8:1]/1-5[8:1],,,,
{8}8/7h[4:1],5,6,7h[4:1],5,6,7h[4:1],5,
{8}6,7h[4:1],5,6,7-4[8:1]/8-4[8:1],,,,
{8}4/1h[4:1],3,2,1h[4:1],3,2,1h[4:1],3,
{8}2,1h[4:1],3,2,1V35[8:1]/8v6[8:1],,,,
{8}5/8h[4:1],6,7,8h[4:1],6,7,8h[4:1],6,
{8}7,8h[4:1],6,7,8V64[8:1]/1v3[8:1],,,,
{8}7h[4:1]/5,4,3,2h[4:1]/5,6,7,8h[4:1]/4,3,
{8}2,1h[4:1]/5,6,7,8v6[8:1]/1v3[8:1],,,,
{8}2h[4:1]/4,5,6,7h[4:1]/4,3,2,1h[4:1]/5,6,
{8}7,8h[4:1]/4,3,2,8v6[8:1]/1v3[8:1],,,,
{8}7-1[8:1],4,3,2-4[8:1],6,7,8-6[8:1],3,
{8}2,1h[4:1],6,7,8-4[8:1]/2-6[8:1],,,,
{8}2-8[8:1],5,6,7-5[8:1],3,2,1-3[8:1],6,
{8}7,8h[4:1],3,2,1-5[8:1]/7-3[8:1],,,,
{8}2b/6b,,3/5,2,4/6,2-5[8:1],,1/2,
{8}7-3[8:1],,7/1,2,1-5[8:1],2/8,1,,
{8}7/3,,6/4,7,5/3,7-4[8:1],,7/8,
{8}2-6[8:1],,2/1,7,8<4[8:1],1/7,8,,
{8}2/6,,3/5,2,4/6,2-4[8:1],,2/6-2[8:1],
{8},6/3-8[8:1],4,3/7,6-1[8:1]*-3[8:1],5/7,6,,
{8}3/7,4h[4:1],8,7,6h[4:1],2,3,4V28[4:1],
{8},8V64[4:1],,4q8[4:1]*p8[4:1],,,,,
{8}2b/6b,,3/5,1,4/6,8-5[8:1],,8/1,
{8}2-6[8:1],,7/2,8,1v4[8:1]/7v4[8:1],,1/7,,
{8}7/3,,6/4,8,5/3,8-4[8:1],,8/2,
{8}3-7[8:1],,3/1,8,1<4[8:1],8/2,1,,
{8}2/6,,3/5,1,4/6,1>4[8:1],,1/7-3[8:1],
{8},7/2-5[8:1],1,6/2,7-4[8:1]*-3[8:1],6/8,7,,
{8}3/7,5h[4:1],1,2,3h[4:1],1,8,7>3[4:1],
{8},3<7[4:1],,7<2[4:1]*p2[4:1],,,,,
{1}1b>5[2:1]*q5[2:1],
{1}8<4[2:1]*p4[2:1],
{1}2b>6[2:1]/6bp2[2:1],
{1}7<3[2:1]/3q7[2:1],
{8}2/8,2/8,1/7,1/7,2/8,2/8,1/7,1/7,
{8}3/8,3/8,6/1,6/1,3/8,3/8,6/1,6/1,
{16}2,8,2,8,1,7,1,7,3,5,3,5,4,6,4bqq8[2:1]*pp8[2:1],,
{4},,,2/6,
{8}3b^6[8:1]/7,,3,7^4[8:1],,7,2^5[8:1],,
{8}6^3[8:1]/2,7,6/2^5[8:1],1,2/7^4[8:1]*p2[8:1],,7,,
{8}2b^5[8:1]/6,,2,6^3[8:1],,6,2^5[8:1],,
{8}6^3[8:1]/2,7,6/2^5[8:1],1,2/6p2[8:1]*^3[8:1],,6,,
{8}3b^6[8:1]/7,,3,7^4[8:1],,7,2q7[8:1],,
{8}6^3[8:1]/2,5,6/2q7[8:1],1,2/6^3[8:1]*p2[8:1],,6,,
{8}2bq7[8:1]/6,,2,6^3[8:1],,6,2^5[8:1],,
{8}7p2[8:1]/2,6,7/3^6[8:1],4,3/7p2[8:1]*^4[8:1],,7,,
{1}4qq5[4:5]*qq6[2:3],
{1},
{1}6pp4[4:5]*pp3[2:3],
{1},
{1}2qq5[4:5]*qq6[2:3],
{1},
{1}8pp4[4:5]*pp5[2:3],
{4},,,4b,
{8}1b-6[8:1]/5b,2,1/3,4,5-8[8:1]/7,4,5/3,2,
{8}1-3[8:1]/5,8,5-7[8:1]/1,4,2-4[8:1]/5,1,2/6-8[8:1],5,
{8}1V75[4:1]/6,1,2,3,4-1[8:1]*-7[8:1],,4,,
{8}8V24[4:1]/6,8,7,6,5w1[8:1],,5,,
{8}3b-8[8:1],2,7-4[8:1],6,2-7[8:1],1,6-3[8:1],5,
{8}1,8h[4:1],5,4,8-3[8:1]/4-7[8:1],,8/4,,
{8}1V35[4:1],1,8,7,6V82[4:1],6,5,4,
{8}3h[4:1],,7-3[8:1],3,4V28[8:1]*V68[8:1]/7,,4,,
{8}8b-3[8:1]/4b,7,8/6,5,4-1[8:1]/2,5,4/6,7,
{8}8^6[8:1]/4,1,4^2[8:1]/8,5,7^5[8:1]/4,8,7/3^1[8:1],4,
{8}8V24[4:1]/3,8,7,6,5^8[8:1]*^2[8:1],4/6,5,,
{8}1V75[4:1]/3,1,2,3,4w8[8:1],,4,,
{8}6b^1[8:1],7,2^5[8:1],3,7^2[8:1],8,3^6[8:1],4,
{8}8,1h[4:1],4,5,1^6[8:1]/5^2[8:1],2/6,1/5,,
{8}8<4[4:1],8,1,2,3>7[4:1],3,4,5,
{8}6,8/4,2-6[8:1],6,5V71[8:1]*V31[8:1]/2,,5,,
{1}3b/7b,
E
