&title=ΤεμπεΣΤ
&artist=Zekk
&first=1.27
&des=Saboten
&lv_5=14+
&inote_5=(195){4},,,,{32}8b,
7,6,5,{16}2,2,{32}8b,7,6,5,{16}3,3,{32}8,7,6,5,4,3,2,1,8,7,6,5,4,3,2,1,
{1}8x/4b<4[2:1]*V68V24[2:1],
{8}6/3,4,5,4,3,5,6,3,
4,5,4,5,6,4,5,3,
6,4,6x,4x,3,5,3,4,
6h[8:3],4,5,4,3h[8:3],5,4,{16}5,6,
{8}7xh[4:1],4,3
,5,4,2,5,3,
6,4,5,7,4,5,6,3,
2h[8:3],4,5,6,7h[8:3],5,4,3,
8b,{16},,,,,,,,,,,,1,8/2,
{4}7b/3h[4:3],6,6,{8}6,{16}8,1/7,
{4}2b/6h[4:1],3,{16}4x/7x,,,5x/2x,,,{8}8x/1x,
{4}7b/2bxh[8:9],7,8,{16}1,8,{8}7h[2:1],
{16},,,3,4h[2:1],,,6,{2}5h[4:1],
{8}6b/3b,6,1,6,3,6,2,6,
7b/3b,3,8,3,{16}5,4,5,4,{4}5x,
{16}4x,3,2,1,4x,5,6,7,2x,3,4,5,8x,7,6,5,
{32}1,2,3,4,5,6,7,8,1,2,3,4,5,6,7,8,1,2,3,4,5,6,7,8,1,2,3,4,5,6,7,8,
{4}1x>8[2:1],,,1b,
4h[8:1]/5h[8:1],{8}4,3,4,3,4,3,
4,5,4,5,4,5,4,5,
6,5,6,5,6,5,6,5,
6,5,{4}4/7b-5[8:1],{16}3x,3,,4,,,{8}3/6,
{4}4h[8:1]/5h[8:1],{16}4,5,3,6,4,5,3,6,4,5,3,6,
4,5,3,6,4,5,3,6,4,5,3,6,4,5,3,6,
4,5,4,5,3,6,3,6,2,7,2,7,1>8[4:3],8,1,8,
{4}1b,,,1b,
5b/4bh[8:3],{16}8,7,6,5,8/4h[8:1],1,2,3,{4}8x/4xh[4:1],
{16}8b,1,2,3,4,5,2b/6,7,{2}8<5[12:1]/1>4[12:1],
{4}4b/5bh[8:3],{16}1,2,3,4,1/5h[8:1],8,7,6,{4}5xh[8:1]/1x>4[12:1]*<6[12:1],
1b,,,C,
{8}4/5,6,4/2,{16}4,5,,3,{8}4,2/5,6,
4/5,3,7/5,{16}5,4,,6,{8}5,{4}8b,
{8}8/1,7,6/3,{16}4,5,4,5,{8}4,6/3,7,
{32}8bx,B8,,,1bx,B1,,,7bx,B7,,,2bx,B2,,,{2}6bxw2[12:1],
{8}7-4[8:1],7,3-8[8:1],3,{16}7,6,5,4,3/7,2,1,8,
{8}7/2-5[8:1],2,6-1[8:1],6,{16}2,3,4,5,6/2,7,8,1,
{8}2/8,7,3,{16}8,1,8,1,{8}8,2,6,
{16}5x/1-6[8:1],,,8x,{8}1,7x,{2}5b-1[8:1]/8b-4[8:1],
{8}7/2,6/3-7[8:1],,3/8>3[8:1]*<5[8:1],,8-4[8:1],,8/1-6[8:1],
,1/7-2[8:1],,7/4<7[8:1],,4/8w4[8:1],,8,
{32},,,,5bx,B5,,,4bx,B4,,,6bx,B6,,,3bx,B3,,,7bx,B7,,,2bx,B2,,,{8}8bx<5[8:1]*>3[8:1],
,8bx-4[8:1],,8bx,,3bx/5bx,{16},,,,8/6,
,,2/3,,,{8}6/4,{2}1>4[32:3]/5<8[32:3],
{16}1/3,,,7/6,,,{8}5/3,{2}8<5[32:3]/4>1[32:3],
{8}2/6,3h[8:1],{16}5,4h[8:1],,5,{8}4h[8:1],6,{4}7/2,
{32}1/5b,2,3,4,5-1b[32:3],6,7,8,1,2,3,4,{8}5b,,7b/3b,,5/4,
{1}4/5<4[2:3],
{16},,,,,,,,,,,,,,,,2,
3,{8}4h[8:3],{16},,,,,,,,,,,,7,
6,{8}5h[8:3],,,,,,,{4}8b/1h[1:1],
{8}6,6,,5,6,7,
,,{4}8/2,{128}6,4,{16},,,{64},,,{4}5/3,
{128}7,1,{4},{16},{64},,,{8}6/3,{4},{128}8,1,{16},,,{64},,,{32}5bx,
4,3,2,1,8,7,6,5,4,3,2,1,8,7,6,{4}5x<1[4:1],{16}1,2,3,4,
{4}5x/A1f,{8}2/4,3,7/5,6-3[8:1],3,6,
{2}1bxh[4:1],{16}8b/2b,,,7b/3b,,,{8}6b/4b,
{4}3b/5bh[4:1],{8}4x,{16}6,3,5,4,5,4,{8}5,2x/7x,
,1,7x/2x,6,{4}4bx/5bx-1[32:3],8x,
{8}7b/2b,{16}3,4,{8}3,{16}6,5,6,5,7,4,{8}7,1-5[8:1]/8-4[8:1],
,8/1,{16},,6,5,{8}7,{16}3,4,{8}2,6b,
{16}4x,3,2,1,4x,5,6,7,2x,3,4,5,8x,7,6,5,
{32}1,2,3,4,5,6,7,8,1,2,3,4,5,6,7,8,1,2,3,4,5,6,7,8,1,2,3,4,5,6,7,8,
{4}1x>8[2:1],,,1b,
6/3-7[8:1],{8}3,{16}5,4,3<5[8:1],2,1-5[8:1],8,{8}3b/7x,1b,
,1,2/6,8,{32}7/1b,6,5,4,,,8b/2,3,4,5,,,{16}8v3[8:1],7,
{8}6<1[8:1],8,6,{16}4,5,6>4[8:1],7,8-4[8:1],1,{8}2x/6b,8b,
,7,8<5[8:1]/4>1[8:1],5/1,{4}4b-7[8:1]/8b-3[8:1],8b/4b,
{8}2b/6b,4,5/3,{16}6,4,5,4,7,4,5,4,{8}8-5[8:1],
,8/1-7[8:1],2-6[8:1],1,{16}2b>5[8:1],,,5x,{8}2b,7,
{32}1b/6,5x,{16}4x,{32},,1b/6,5x,{8}4x,{16}1bx/6bx,2bx/7bx,{2}3bx-6[8:1]/8bx-5[8:1],
{16}2,4,3,7,5,6,1,5,{32}2bx,3,4,5,6,7,8,1,{4}2b/6b,
{8}8-3[8:1],4-7[8:1],8,4,{16}2,1,8/4,7/3,6/2,1/5,{8}4/8>3[8:1],
,8/4-8[8:1],6-2[8:1],4,{16}6>3[8:1],,,1,{8}6,{16}8-4[8:1],1,
{8}2-6[8:1],8b,2b,{16}5,4,3V52[4:1],2,1-6[8:1],8,{8}7x/3b,1b,
,5/1,6/2,7/3,{48}4h[4:1]/8h[4:1],,,,,,,,,,,,,D8/D4,A7/A3,D7/D3,A6/A2,D6/D2,{8}A5/A1,
7-3[8:1],2-5[8:1],7,2,1-6[8:1],4-8[8:1],1,4,
7-4[8:1],1-5[8:1],7-3[8:1],1-4[8:1],7,1,{4}8b,
{16}3bh[8:1]/8bh[8:1],,,4h[8:1]/6h[8:1],,,{8}2h[16:1]/5h[16:1],{16}1bh[8:1]/6bh[8:1],,,5h[8:1]/3h[8:1],,,{8}7h[16:1]/4h[16:1],
{16}1bh[8:1]/5bh[8:1],,,3h[8:1]/7h[8:1],,,{8}2h[16:1]/6h[16:1],{4}8bh[4:1]/4bh[4:1],Cf/B7/A7/B3/A3/B1/A1/B5/A5,
{1}2bpp8[2:3]/6bpp4[2:3],
,{24}1v4[8:1]/7v4[8:1],
2x/6x,3x/5x,4x,,,{4}1b/7b,{8}2/6,{24}1<6[8:1],2,3,{8}4h[8:1],1bV35[8:1],
,1/5,7-4[8:1],1,{4}7/2-6[8:1],2/8w4[8:1],
8b,8x<5[8:1],{24}8/1-5[8:1],2,3,4>8[8:1],,,{8}1,4,
7-4[8:1],6,7/2-5[8:1],1,2/8-4[8:1],7,{4}8/3b,
{16}8/1,2,3,4,{24}6/5,7,8,1,2,3,{4}8b/4h[4:1],{16}5,4,5,4,
5x,6,7,8,1<3[16:3],8,2,7,{4}1x,{32}8,1,2,3,4,5,6,7,
8b/A2f,B2,C,B6,{8}A6,,,,,5/4,B7/B8/B1/B2/Cfh[8:9],
,E1,{4}B5/E5/B4,{16}B7/B8/B1/B2,,,E8/E1/E2,,,{8}A8/A1,
B6/A6/B5/A5/B4/A4/B3/A3,,,,,,,1x/8x,
,,{4}4x/5x,{8}3/4,3/4,2/5,2/5,
1b/6b,{16}7,8,{8}7,1b/6b,{16}2,5,3,4,8,7,{8}1,
8b/3b,{16}2,1,{8}2,3b/8b,{16}7,4,6,5,1,2,{8}8,
{16}4,3,2,1,4,5,6,7,2,3,4,5,8,7,6,5,
4x/2b,,,7b/5x,,,{8}6b/3b,{4}4b/5h[4:1],8bh[8:3],
{24}5b,4,3,2-6b[16:1],1,8,{8}7xh[8:1],Cf/2bV46V82>2[8:27]*V46V82[600:959],
E
