&title=スターナイトスノウ
&artist=n-buna × Orangestar
&first=0
&des=SuzuzRin
&cabinet=DX
&clock_count=4
&des_5=Rin
&lv_5=13
&inote_5=(180){4},{16},,,,,,,,,,,,5-8[2:1],
,,4,{4}5,{16},,,,,,,,1-4[2:1],
,,8,{4}1,,5,
6,3,7/2,1/8-4[8:1],
8x/1-5[8:1],1x/7-4[8:1],7x/2-5b[8:1],2x,
{16}6h[4:1],,,5h[16:5],,,,4h[16:5],,,,3h[16:5],,,,4h[16:5],
,,,5h[16:5],,,,6h[16:5],,,,7h[16:5],,,,6h[16:5],
,,,5h[16:5],,,,4h[16:5],,,,3h[16:5],,,,4h[16:5],
,,,,{4}5,{16}6x,5x,{8}4x,{16}2x,3x,{8}4x,
{16}6,,,6,5,,,5,4,,,4,3,,,3,
4b,,,4,5,,,5,6,,,6,7,,,7,
6b,,,6,5,,,5,4,,,4,3,,,3,
4b,,,4,{4}5/3x<6[8:1],{16},,,,,,,,4,
,,4,5,,,5,3,,,3,6,,,6,
2b,,,2,7,,,7,1,,,1,8,,,8,
2b,,,2,7,,,7,8,,,8,7,,,7,
6b,,,6,{4}5,{16}3x,4x,{8}5x,{16}7x,6x,{8}5x,
{16}4,,,4,3,,,3,2,,,2,1,,,1,
8,,,8,7,,,7,6,,,6,{4}5,
5h[4:1],6h[4:1],7h[4:1],8-4[8:1],
8,3,2/3,2/1-5[8:1],
1b/8,,,5,
6/5,,,4,
4/3,,,3/4,
4h[4:1],5h[4:1],6h[4:1],7-2[1:1],
,,,,,,4/3,
5/2,
{1}1h[2:1]/6h[4:3],
{4}2,6/3,{2}5/4,
{4}5/4,6/5,{16}6,,,6h,{4}5-7[8:1],
,,1/8,1/2,
2/3,3/4,{16}3,,,3,4,,,4,
5,,,5,{4}6,{16}5,,,5,{4}4,
{16}4,,,4,{4}5,{16}6,,,6,{4}5,
{16}3,,,3,{4}4,{16}7,,,7,{4}6,
{16}2,,,2,{4}3,{16}6b,,,6,5,,,5,
{4}4h[2:1],{16},,,,,,,,5,,,5h,
{8}4,,,4h[8:3],,,{4}3h[4:1],
{8}2,,,2h[8:3],,,{4}1h[4:1],
{8}8,,,8h[8:3],,,{4}7h[4:1],
{8}6,,,6h[4:1],{16},,,,5-1[4:1]*-8[4:1],,,6h,
{2}5,{4}6h[16:3],{16}8q4[4:1],,,7h,
{2}8,{16}5/4,,,5/4,,,,,{4}5>2[4:1],
2<7[4:1],7<4[4:1],4>1[4:1],
{2}1,{16}8/1,,,8/1,,,,,{4}8>3[4:1],
3<6[4:1],6<1[4:1],1>4[4:1],
{1}4qq4[8:3]*pp4[8:3],
{16}5-1[8:1],,,3h,{4}5,{16}2-6[8:1],,,8h,{4}2,
{16}7-3[8:1],,,5h,{4}7,{16}4-8[8:1],,,5h,4,,,6,
7<4[8:1],,,3h,{4}7,{16}3<6[8:1],,,7h,{4}3,
{16}7>2[8:1],,,3h,{4}7,{16}3>8[8:1],,,7h,3,,,6,
5-1[8:1],,,4,{4}3,{16}2-6[8:1],,,1,{4}8,
{16}7-3[8:1],,,8,{4}1,{16}2b,,,8,{4}7-3[8:1],
8-4[8:1],1-5[8:1],{2}2-6[8:1],
{16}5,,,5,{4}4,{16}4,,,4,{4}5,
{16}4-8[8:1],,,6h,{4}4,{16}7-3[8:1],,,1h,{4}7,
{16}2-6[8:1],,,4h,{4}2,{16}5-1[8:1],,,4h,5,,,3,
2>5[8:1],,,6h,{4}2,{16}6>3[8:1],,,2h,{4}6,
{16}2<7[8:1],,,6h,{4}2,{16}6<1[8:1],,,2h,6,,,3,
4-8[8:1],,,5,{4}6,{16}7-3[8:1],,,8,{4}1,
{16}2-6[8:1],,,1,{4}8,{16}7b,,,1,{4}2-6[8:1],
1-5[8:1],8-4[8:1],{2}7-3[8:1],
{16}2,,,2,{4}3,{16}4,,,4,{4}5,
6x-3[8:1],6x,4x-1[8:1],4x,
2x-7[8:1],2x,8x-5[8:1],8x,
6x-3[8:1],6x,4x-1[8:1],4x,
2x-7[8:1],2x,{16}1,,,1,{4}8,
7x-4[8:1],7x,5x-2[8:1],5x,
3x-8[8:1],3x,1x-6[8:1],1x,
7x-4[8:1],7x,{16}2x,3x,{8}4x,{16}6x,5x,{8}4x,
{4}3h[4:1],{16}4h[16:3],,,3h[16:5],,,,,,,,,4,
,,4,{4}5,{16}5,,,5,{4}4,
{16}3,,,3,{4}4,{16}6,,,6,{4}5,
{16}7,,,7,{4}8,{16}2,,,2,{4}1,
{16}3,,,3,4,,,4,{4}5,C,
{16}5,,,5,{4}4,{16}4,,,4,{4}5,
{16}6,,,6,{4}5,{16}3,,,3,{4}4,
{16}2,,,2,{4}1,{16}7,,,7,{4}8,
{16}6,,,6,{4}5,{16}3,,,3,{4}4,
E3/B3/E4,B5/E5/E6,E8/B7/E7,E1/E2/B1,
{2}Cf,{16}4h[16:3],,,5h[16:5],,,,,4-8[8:1],
,,6h,{4}4,{16}7-3[8:1],,,1h,{4}7,
{16}2-6[8:1],,,4h,{4}2,{16}5-1[8:1],,,4h,5,,,3,
2>5[8:1],,,6h,{4}2,{16}6>3[8:1],,,2h,{4}6,
{16}2<7[8:1],,,6h,{4}2,{16}6<1[8:1],,,2h,6,,,3,
4-8[8:1],,,5,{4}6,{16}7-3[8:1],,,8,{4}1,
{16}2-6[8:1],,,1,{4}8,{16}7b,,,1,{4}2-6[8:1],
1-5[8:1],8-4[8:1],{2}7-3[8:1],
{16}4,,,4,{4}5,{16}5,,,5,{4}4,
{16}5-1[8:1],,,3h,{4}5,{16}2-6[8:1],,,8h,{4}2,
{16}7-3[8:1],,,5h,{4}7,{16}4-8[8:1],,,5h,4,,,6,
7<4[8:1],,,3h,{4}7,{16}3<6[8:1],,,7h,{4}3,
{16}7>2[8:1],,,3h,{4}7,{16}3>8[8:1],,,7h,3,,,6,
5-1[8:1],,,4,{4}3,{16}2-6[8:1],,,1,{4}8,
{16}7-3[8:1],,,8,{4}1,{16}2b,,,8,{4}7-3[8:1],
8-4[8:1],1-5[8:1],{2}2-6[8:1],
{16}5,,,5,{4}4,{16}4,,,4,{4}5,
{1}6<4V68V24[4:11]/3>5V31V75[4:11],
E
