&title=Only For You
&artist=NieN
&first=-0.22
&des=digitalgroove
&lv_5=13 | 13.1
&inote_5=(122)
{4},,,,,
{8}5h[8:2],4,3,E3h[8:3],,,,
{16}B5,B6,{8}E7h[8:2],2,3,A4h[8:3],,,8,,
{8}4h[8:2],5,6,E7h[8:3],,,,
{8}3,3bx/B7/B8/E8f,{16},6bx/B2/B3/E3f,{8},
{8}5pp8[8:3]/2,2,{16}E3,B3,B4,,
{8},3h[8:2],,7^2[8:2],7,,,3^6[8:2],3,8,
{8}E1,E8,E7h[8:2],4,4,3,3,
{8}2bx/B6/B5/E6f,{16},7bx/B3/B2/E3f,{8},
{8}1pp4[8:3]/6,6,,B8/B7,,7xh[8:3]b,
{16}B1/E1,B8,B7,B6,B5,B4h[16:9]f,8-5[8:1],,{8},8,,6b,
{8},45,4,6,65,3,3h[8:4]/5,{16}E6,,,E7,,,E8h[8:3],,{8}2>5[8:1],,2,
{8}7,8,84,3,63,5-3[8:1],3-7[8:1],5,2,{16}1b,,,B6/E6,,,B3/E4/B4,,
{8}8-5[8:1],2,2/A8,,
{8}4h[8:2],5,6,5h[8:2],4,3,2,16,7qq4[8:4],,,B3,B2,B1,B8,5h[8:4],
{16}B2/B3/E3,,,B8/E8/B7,,,B1,,{8}Cf/5-1[8:1],,
{8}A5,,
{16}8h[8:1]/2h[8:1],,,1h[8:1]/7h[8:1],,,8,,{8}8-4[8:1],,1,2,35,35,46,46,
{8}5<1[8:2],,2pp5[8:4],,2h[8:2],,,1,1>4[8:1],,
{8}7,{16}E8,B7,B6/4x,,3,5h[16:3],,,
{8}4,3^8[8:1]/5,,3/E6h[8:6],,
{16}E3/B3/B2,,,E8/B8/B7,,,2,,2v5[8:1],,,,{8}A2/7b,
{16}8x,7x,6x,,
{16}3,4,,,5<2<5[8:6],,A2h[8:2]/E3h[8:2]/D3h[8:2],,,,
{8},,3h[8:1]b,,4h[8:1],,
{8}45,45,35,35,26,26,37,37,
{16}4,6,5,6,3,7,2,8,
{8}1bh[8:4],,,,4-8[8:1]b,,4,,
{16}2^7[8:1],,,5,2,,6h[8:1],,8x-3[8:1],,,,8x/B6/E6/B5,,
{8},46,2,46,{16}8x,7x,6x/3^6[8:1],,,7,3,,
{8}8,5x>2[8:1],{16},1,5x,,A2h[8:3],,1-6[8:1],,,,
{16}1,,,,7,4,6,4,3x/5x-8[8:1],,5,,2q3[8:2],,,7x,2b,,
{8}8,6v1[8:1],{16}B2,B3,E4h[8:1],,B3,B2,E2h[8:2]/8-5[8:1],,,,
{8}8b,{16}1x,2x,
{8}3x-8[8:1],{16},7,3,,E7,B6,B5h[8:2]/1x-5[8:1],,,,1b,,
{8}6h[8:1],{16}3^8[16:3],,,8^3[16:3],,,6,,E58[8:3],,,,,6,A1,,7<4[8:3],,,2,,1,A4,,
{16}2h[16:3],,,5h[16:3],,,7b,,6h[16:3],,,4h[16:3],,,2b,,
{8}E3^E4^E5^E6^E7^E8^E1^E2^E3^B3^B4^B5^B6^B7^B8^B1^B2[8:6]b,,,,,,,,{32}A8,E1h[8:6],,,{8},,,,,,,
{16}2V48[8:2]/Cf,,,6,2,,6,,7V15[8:2],,,1,7,,2,,3v8[8:1],,,7,3,,
{16}E7,E6,E5h[8:2],,,2,E6,E7,E8h[8:1],,1V35[8:2],,,8x,1,,7,,6V84[8:2],,2x,2x,2x/6,,,,B2/B3/E3f,,,,4,4,6,5,7V51[8:2],,,3,7,,2b,,3h[8:2],,,B8/B1/E1,,,E5/B4/B5,,7-2[8:1]b,,,,A7/A3,,
{16}E4,B4,E5h[8:2]/B2/B1/E2,,,E8/B8/B7,,,E1,,D1-D5[8:1],,,,D1,,
{16}4,4,6,,3,5,3,,1,1,8-4[8:1],,,2,8,,1x,,1xh[8:1],,4x,5x,6x,7x,8xh[8:3]b,,
{16}5-1[8:1]b,,,,5,,,,
{16}2^7[8:1],,,5,2,,6h[8:1],,8x-3[8:1],,,,8x/E6/B6/B5,,,,
{16}E6h[8:1],,B6,B7,E8h[8:2],,4x,3x,2xv5[8:1],,
{16},7,2,,8,,7h[16:3]/E3,,,B6/E6,,,7/E4h[16:5]/B4h[64:8]/B3h[8:4],,E7,,,E2/B2,,,8,,8-4[8:1],,4x,3x,2x,1x,{8}1bx,
{16}7-3[8:1],,,1,7,,1,,2-5[8:1],,,,6,,7,,4^1[8:1],,,6,4,,5-7-4-8[8:3],,E2/B1,,,E3/B2/B3,,,E4/B4,,2x^7[8:1],,,,A2,,
{16}5,5,6-1[8:1],,,2,6,,4,,A4>A7>E4[8:5],,,,5,,6,,B7/A7,,,B6/A6,,,A5/B5,,4x-1-5[8:3],,,6,4,,5pp5qq5[8:8]b,,,,,,,,,,,,,,E8,E1,E2,,D1h[8:12],,,,,,,,,A3h[8:7],,,,,,,,,,,,,,
{32}E4,B4,B5,E6,
{1},
E
