&title=輪廻玲々
&artist=suzu
&first=-1
&des_1=Fairoth
&des_2=Fairoth
&des_3=Fairoth
&des_4=Fairoth
&des_5=Fairoth
&lv_5=14
&des_6=Fairoth
&des_7=Fairoth
&des=Fairoth
&inote_5=(188)
{1},
{24}B6hf[1:1]/E7h[1:1]/E6h[1:1],,,,,,8,1,2,,,,2,,,2h[4:1],,,,,,,,,2-8<4-1b[4:15],B2,,,,,,,,,,,,,,,,,,,,,,,
{1}B4,C,B8,
{8}6h[4:3],,,4,,,3,,5h[4:3],,,3,,,2,,4h[4:3],,,2,,,1,,
{16}E5,B5,B6,E7,E1,B1,B2,E3,E8,B7,B6,E6,E4,B3,B2,E2,
{8}6bh[8:3],,,4b,,,2b/8,,2bh[8:3],,,5b,,,7b/1,,7bh[8:3],,,4b,,,3b/1,,3bh[8:3],,,8b,,,6b/5,,
{16}3,4,3,4,3,,6,5,6,5,6,,3,,3,,6,5,6,5,7,,3,4,3,4,2,,6,,6,,
{16}3,4,2,5,1,,6,5,7,4,8,,3,,3,,
{8}3/7,2-5[8:1],1,2/6,7-4[8:1],8,3/7,2,
{8}3>4-8b[8:21],,,,,7-5[8:1],,7,,,,,,3-1[8:1],,3,,,,,,,,C,
{8},,,,,,,,7v4<2b[8:21],,,,,,,6,,6-2[8:1],,6,,,
{16}2,3,4h[1:1],,
{8},,,,,,,,,,B1,B2,B3,B4,B5,B6,
{8}2b-5[8:1],,2/7-3[8:1],,7/1>4-7[4:1],,1/5,5h[4:1],,,6/3b-7[8:1],,3/5<8-3[4:1],,5/1,1h[4:1],,,
{8}1b-5[8:1]/7,,1/6z2[4:1],,6/4,4h[4:1],,,B1,B8,B7,B6,B5,B4,
{8}7h[8:5],,,,1,1s5[4:1],,1/3h[8:17],,,,,4,5,6,7h[8:9],,,,,,,,,
{16},2,1,8,5,6,7,8,4,3,2,1,6,7,8,1,
{16}2/A4h[2:1],,,,B2,B1,B8,B7,B6h[4:1]/E7h[8:3],,B2h[8:1]/E3h[4:1],
{16},,,,,,,,,E5,B5,B6,E7,B1h[8:1]/B2h[4:1]/E2h[8:3],,,,,,,,
{16}A5h[2:1],,,,B7,B8,B1,B2,B3/E3,,B7/E7,,B5/E5,,B1/E1,,
{16}A2,A3,A4,,D8/A8/D1,,,,B4,B3,B2,B1,B8,B7,B6,B5,
{16}A8h[2:1],,,,B6,B5,B4,B3,B2h[4:1]/E3h[8:3],,B6h[8:1]/E7h[4:1],
{16},,,,,,,,,E1,B1,B2,E3,B5h[8:1]/B6h[4:1]/E6h[8:3],,,,,,,,
{16}A1h[2:1],,,,B3,B4,B5,B6,B7/E7,,B3/E3,,B1/E1,,B5/E5,,
{16}A6,A7,A8,,D4/A4/D5,,,,B8,B7,B6,B5,B4,B3,B2,B1,
{16}4h[2:1],,,,1,8,7,6,5h[4:1],,1h[4:1],
{16},,,,,,,,,5,6,7,8,1h[8:1],,3h[8:1],,5h[8:1],,7h[8:1],,
{16}4h[2:1],,,,6,7,8,1,2h[2:1],,3,,4,,5h[4:1],,
{16},1,8,,5h[16:11],,,,6,7,8,1,2,3,4,,
{8}4h[8:1],,4h[8:1],,4h[8:1],,4h[8:1],,3h[8:1],7,3h[8:1],7,3h[8:1],7,3h[8:1],7,2h[8:1],8,2h[8:1],8,2h[8:1],8,2h[8:1],8,
{16}1b-5[2:1],,,,4,5,6,7,8,1,2,3,4bw8[8:1],,,,
{8}4b,,,,,,,4qq2[4:3],,,,,,,,5h[1:1],,,,,,,,4h[8:7],,,5,,6,,7,,5h[8:3]/4q3[8:5],,,,,,,6q5[8:5],,,,,,,,8q7[8:5],,,,,,,,2q1[8:5],,,,,,,,,
{8}2/5h[8:7],,,3,,4,,4h[1:1],,,,,6,6,5,5p4[8:5],,,,,,,3,3h[8:3],,,4h[4:1],,5h[4:1],,6h[4:1],,2v4-1[4:3],,,,,7,6,5h[1:1],,,1,,1h[8:3],,,,
{32}8x,E8,B7,B6,E6,,,,2x,E3,B3,B4,E5,,,,7x,E7,B6,B5,E5,,,,1x,E2,B2,B3,
{16}E4h[2:1],,,,,,,,,,1v4[8:1]*v6[8:1],1,,,1,,,,
{1}5h[8:15],1h[8:7],
{16}1,5,1,5,2,6,2,6,3,7,3,7,3,7,3,7,
{24}3x,4,5,1x,8,7,2x,3,4,8x,7,6,2x,3,4,5,6,7,
{8}8-4[8:1],,8b/3,,,3b/6-4[8:1],,6b-1[8:1]/2-7[8:1],,6b/2b-5-1[4:1],,
{8}2,,,6-2[8:1],2-4[8:1],6,1h[8:3],,,5,
{16},,2,4,2,,4,,4h[8:1],,2,4,3,5,4,6,5,7,1,8,2,1,3,5,4,6,
{8}5h[8:3],,,7<4[8:1],,2-5[8:1]/7,,2v4[8:1]/8v7-5[4:1],,2/8,,,1,6-4[8:1]/1-5[8:1],,1/6-1-7[4:1],,6,,,2,2v4[8:1]/6-8-2[4:1],,2<5[4:1]/6,,,4-8[8:1],,4w8[8:1],,4,,
{16}2,3,4,8,7,6,1,2,3,7,6,5,1,2,3,4,6,5,6,3,5,4,5,2,6,5,6,3,8,7,6,5,
{16}2,3,4,5,1,2,3,4,7,6,5,4,8,7,6,5,4,3,2,1,3,2,1,8,4bh[16:3],,,2bh[16:3],,,8bh[8:1],,
{8}1,1h[8:1],2,2h[8:1],3,3h[8:1],4,4h[8:1],5,5h[8:1],6,6h[8:1],7,7h[8:1],8,8h[8:1],
{64}2,,,,1,,,,2x,E3,B3,B4,E5,,,,7,,,,8,,,,7x,E7,B6,B5,E5,,,,2,,,,1,,,,2x,E3,B3,B4,E5,,,,7,,,,8,,,,7x,E7,B6,B5,E5,,,,
{16}1b,,,,8,7,6,5,2,3,4,5,7,6,5,
{16},3,4,3,4,2,,6,5,6,5,7,,4,5,4,,7,8,7,8,6,,2,1,2,1,3,,8,1,8,,2,4,3,4,2,,7,5,6,5,7,,4,5,3,,4/3h[4:1],5,6,7,8,,5/4h[4:1],6,7,8,1,,6,7,8,,
{16}3,5,2,6,1,,6,4,7,3,8,,3,5,4,,7,5,6,4,5,,2,4,3,5,4,,6,4,5,,7h[4:1]/8,1,2,3,4,,8h[4:1]/1,2,3,4,5,,6h[4:1],1,2,3,4,,7h[4:1],2,3,4,5,,4/8,3/7,2/6,1/5,8,7,6,5,
{64}4,,,,,,,,4xw8[32:3],,,,,,,,,,,,,,,,,,B4,C1f,B1/B7/B8,,,,,,,,,,,,,,,,,,,,,,,,,,,,,,,,,,,,
{16}3,4,3,2,3,,6,5,6,7,6,,4,5,4,,
{16}2,1,2,3,2,,7,8,7,6,7,,1,8,1,,
{16}4/3,5,6/3,7,8/3,,5/4,6,7/4,8,1/4,,6,7,8,,
{8}2>5[8:1],,2b/6,7-4-6[4:1],,3/7b,3,,3v8[8:1],,3b/5,5<2[4:1],,5b/4,4,,
{16}5/6,4,3/6,2,1/6,,4/5,3,2/5,1,8/5,,5h[4:1],7,8,1,2,,6h[4:1],8,1,2,3,
4/7,5/8,6/1,7/2,8,1,2,3,,
{16}6h,4,8h,2,4h,,3h,5,1h,7,5h,,
{24}6,5,6,5,,,
{16}3h,5,1h,7,5h,,6h,4,8h,2,4h,,
{24}A4hf[4:1]/B4h[4:1]/3xb,2,1xb,8,7xb,6,5bs1<1[4:15]*bz1>1b[4:15],
E
