&title=L.L.L.
&artist=MYTH & ROID
&first=0
&des=L.L.L.
&lv_5=14
&inote_5=(208)
{1},
{16}2b/4b-8[16:2],,,,,,,,1x-6[16:2],,,,,,,,
{16}7b/5b-2[16:2],,,,,,,,8x-4[16:2],,,,,,,,
{16}3/5,,3,,6,,7-4[8:1]/5,,,,7,,8,,1,,
{16}2/4,,3,,5,,6-4[10:1]/4,,,,6,,3,,2,,
{16}17,,5,,3,,4-8[8:1]/2,,,,4,,1,,2,,
{16}37,,5,,4,,28,,,,1,6,1,6,1,6,
{16}8-3[8:1],,5,,8,,,,7-3[8:1],,1,,7,,,,
{16}2-5[8:1],,6-1[8:1],,2,,6,,,,3,4,3,,16,,
{16},,7,5,6,,38,,,,4,5,4,,7/2-6b[8:1],,
{16}6-2b[8:1],,2b,,8b-4-8[16:4],,,,,,,,,,,,
{16}1b/7b-4b[8:1],,,,7b/3b-8b[8:1],,,,3b/5b,,,,,,6,,
{16}6-4[10:1],,2,,,,2,,6-4[10:1],,2,,,,2,,
{16}3-5[10:1],,8,,,,8,,3-5[10:1],,8,,,,8,,
{16}7h[16:1],,5h[16:1],,6h[16:1],,1h[16:1],,4,3,4,3,4,3,4,,
{16}2b-5b[8:1],,,,2b/6b-1b[8:1],,,,6b/4b,,,,,,3,,
{16}3-1[10:1],,7,,,,7,,3-5[10:1],,7,,,,7,,
{16}6-8[10:1],,1,,,,1,,6-4[10:1],,1,,,,1,,
{16}2,,2-5[8:1],,,,26,,8-4[8:1]*-3[8:1],,,,8b,,,,
{16}6b-1b[8:1]/2b,,,,4b-8b[8:1]/6b,,,,4b/8b,,,,,,6,,
{16}1-3[10:1],,7,,,,7,,1-4[8:1],,8,,,,8,,
{16}7-4[8:1],,4x,,3x,,2x,,6-1[8:1],,1x,,2x,,3x,,
{16}4h[16:1],,7h[16:1],,1h[16:1],,5h[16:1],,2,6,2,6,2,6,2,6,
{16}2b-5b[8:1],,,,8b-4b[8:1]/2b,,,,8b/4b,,,,,,1,,
{16}6-8[10:1],,2,,,,2,,6-1[8:1],,3,,,,3,,
{16}4h[8:3],,1-5[8:1],,,,1,,3x,,6x,7x,8x-4-6-1[8:6],,2x,3x,
{16}4xV25[8:4],,,,,,,,,,,,,,,,
{16},,
{16}34,,34,,25,,25,,,,
{16},,
{16}47,,47,,56,,56,,,,
{16}B3h[16:1],,,,
B7h[16:1],,,,
{16},,
{16}61,,61,,87,,87,,,,
{16},,
{16}21,,21,,83,,83,,,,
{16}B6h[16:1],,,,
B2h[16:1],,,,
{16},,
{16}34,,43,,15,,15,,,,
{16},,
{16}65,,56,,84,,84,,,,
{16}A7,E7,E6,A5,
A4,E4,E3,A2,
{16}8bV64[4:1],,,,4V28[4:1],,,,8-4[6:1],,,,4,,,,
{16}3,5,2,6,1,7,8b-4>6>1s5b[8:16],,,,6bh[8:17],,,,,,
{16},,,,,,,,,,,,,,,,
{16},,,,,,,,,,,,,,,,
{16}2b-6[8:1]/4b-7[8:1],,1,,24,,,,8-3[8:1],,4,,82,,,,
{16}1,,5,,3,,{24}8,7,6-1[16:1],{16}5,,{24}2,3,4,{16},,,,
{16}7-4[8:1]/5-1[8:1],,8,,7/5,,,,2-6[8:1],,6,,28,,,,
{16}1,,4,,7,,{24}1,2,3-8[16:1],{16}4,,{24}7,6,5,{16},,,,
{16}6^3[8:1],,4,,2,,,,1-5[8:1],,4,,6,,,,
{16}7^4[8:1],,5,,3,,,,2-6[8:1],,5,,7,,8bh[4:1],,
{16},,2,1,3h[8:1],,7,8,6h[8:1],,3,4,2,4,3,,
{16}7h[8:1],,5h[8:1],,1h[8:1],,3h[8:1],,4h[8:1],,8h[8:1],,6h[8:1],,1,,
{16}2x/4x-7[8:1],,2,,24,,2,,6/1-5[8:1],,6,,61,,6,,
{16}4/8,,4,,4,,{24}8,7,6-1[16:1],5,,,{24}2,3,4,,,,,,,
{16}8/5-1[8:1],,8,,85,,8,,2/7-4[8:1],,2,,27,,2,,
{16}15,,5,,5,,{24}1,2,3-8[16:1],4,,,{24}7,6,5,,,,,,,
{16}5,,5h[8:1],,{24}7x-3[8:1],8x,1x,2x,,,{16}7b/4x-8[24:3],,,,,,,,
{16}6,,6h[8:1],,{24}8x-4[8:1],1x,2x,3x,,,{16}8b/5xV31[24:4],,,,,,6h[8:2],,
{16},,7,,1,,3h[4:1],,,,5,4,5,,7-3b[8:1]/2,,
{16}3-7b[8:1],,7b,,1b-5-1[16:4],,,,,,,,,,,,
{16}3-5[10:1]/5,,,,8,,,,6-2b[8:1]/4,,,,1hb[4:1],,,,
{16}8,,8-4[8:1],,3-8[8:1],,3,,,,,,6,,6,,
{16}2-6[8:1],,,,8,,,,7-4b[8:1],,,,2bh[4:1],,,,
{16}5,3,5,3,6,2,6,2,7,4,7,4,6,5,6,5,
{16}7-4[10:1],,,,1,,,,3-7b[8:1]/5,,,,8hb[4:1],,,,
{16}1,,1-5[8:1],,6-1[8:1],,6,,,,,,3,,3,,
{16}45,,45,,,,7,,65,,65,,,,1,,
{16}34,,34,,,,18,,36,,5,4,5,4,5,,
||
shout!!!
{24}1bx,2,3,4,,,7,6,5,,,,1bx,2bx,3-8b[16:1],4,,,6hb[4:1],,,,,,
{24}1x,,,4-1[8:1]/7-4[8:1],,,,,,4b/7b,,,,,,,,,6,,,6,,,
{24}1bx,2bx,3bx,4,,,7,6,5,,,,1bx,2bx,3bx,4bx,,,7,6,5,,,,
{16}6,5,6,5,7,4,7,4,8,3,8,3,1,2,1,2,
{24}8bx,7bx,6bx,5bx,,,2bx,3,4,,,,8bx,7bx,6bx-1b[16:1],5bx,,,3hb[4:1],,,,,,
{24}8x,,,4-8b[8:1]/2-5b[8:1],,,,,,4b/2b,,,,,,3,,,3,,,3,,,
{24}8bx,7bx,6bx,5bx,,,2bx,3bx,4,,,,8bx,7bx,6bx,5bx,,,2bx,3bx,4bx,,,,
{16}7bx/5bx,,6bx,,2bx/4bx,,3bx,,1b-5b[10:1]/8b-4b[10:1],,7b/2b,,1b/8b,,,,
{16}3b,5b,3b,5b,2b,6b,2b,6b,1b,7b,1b,7b,8b-4[8:5],8b,8b,8b,
{16},,,,,,,,6h[4:2],,,,,,,,
{16}2-5[8:4],,,,,,,,8h[4:2],,,,,,,,
{16}4-7[8:4],,,,,,,,6h[4:2],,,,,,,,
{16}1-5[16:10],,,,,,,,,,,,,,,,
{16}8,4,8,4,7,4,7,4,6,4,6,4,5,4,5^6^7^8^1s5[8:13],4^3^2^1^8z4[16:25],
{16},,,,,,,,,,,,,,,,
{16},,,,,,,,,,,,,,,,
{16},,,,,,,,,,,,,,,,
