&title=Love Blood
&artist=ETIA. feat.Jenga
&des=SP七级
&wholebpm=116
&first=2.575
&first_1=2.575
&first_2=2.575
&first_3=2.575
&first_4=2.575
&first_5=2.575
&amsg_first=
&tap_ofs=
&hold_ofs=
&slide_ofs=
&break_ofs=
&lv_1=1
&lv_2=2
&lv_3=5
&lv_4=10
&lv_5=11
&inote_1=
(116){2}
1,,8,,4,,5,,
7,,6,,2,,3,,
8,,,,6,,,,
4,,,,2-7[1:1],,,,
7h[1:1],,,,5h[1:1],,,,
3h[1:1],,,,1h[2:1],,1b,,
1,,2,,3,,4,,
5,,6,,7,,8,,
1,,8,,7,,6,,
5,,4,,3-6[2:1],,2b,,
8h[1:1],,,,1-4[1:1],,,,
2b,
{1}
,,
E
&amsg_time=
&amsg_content=
&inote_2=
(116){2}
1,,8,,4,,5,,
7,,6,,2,,3,3,
8,,8,,6,,,,
4,,4,,2-7[1:1],,2b,,
7h[1:1],,,,5h[1:1],,,,
3h[1:1],,,,1h[2:1],,1b,,
1,,2,,3,3,4b,,
5,,6,,7,7,8b,,
1,,8,,6,6,7b,,
4,,5,,3-6[2:1],,2b,,
8h[1:1],,,,1-5[2:1],,1,2,
3b,
{1}
,,
E
&amsg_time=
&amsg_content=
&inote_3=
(116){2}
1,,2,,3,,4-8[2:1],,
1,2,3,4,5,6,7,8,
8,,8,,6,,6h[2:1],,
4,,4,,2h[2:1],,2-8[2:1],,
7h[4:3],,7b,,5h[4:3],,5b,,
3h[4:3],,3b,,1h[2:1],,1b,1,
1,2,2/1,,3,4,4/3b,,
5,6,6/5,,7,8,8/7b,,
1,8,8/1,,6,7,7/6b,,
4,5,4/5,,3-6[2:1],,2b,2,
8h[2:1],,8,,1^6[2:1],,1,2,
3b,
{1}
,,
E
&amsg_time=
&amsg_content=
&inote_4=
(116){1}
1-5[2:1],2-6[2:1],3-7[2:1],
{2}
4<8[2:1],4b,
{8}
1,,2q6[2:1],,2b,,,,3,,4q8[2:1],,4b,,,,
5,,6q2[2:1],,6b,,,,7,,8q4[2:1],,8b,,,,
{4}
8v5[2:1],,,,6v3[2:1],,,,
4v1[2:1],,,,2p7[2:1],,2,,
1p3[2:1],1h[4:1],,,3p5[2:1],3h[4:1],,,
5p7[2:1],5h[4:1],,,7p1[2:1],7h[4:1],,
{8}
8b,8b,
{4}
8^5[4:1],8^3[4:1],8,,1<5[4:1],1>5[4:1],1,,
6q2[4:1],6p2[4:1],6,,3p7[4:1],3q7[4:1],3,,
7v4[4:1],1v4[4:1],8-4[4:1],,5v8[4"1],3v8[4:1],4-8[4:1],,
1^4[4:1],4^7[4:1],7^2[4:1],2s6[4:3],6b,2b,2,,
8-4[8:1],2-6[8:1],7-3[8:1],,1-6[8:1],7-4[8:1],2-5[8:1],,
7^5[8:1],2^8[8:1],5^3[8:1],,7-4[8:1]/1-4[8:1],,8-5[8:1]/2-5[8:1],,
1-5[8:1],1b/7-4[8:1],8-3[8:1],8b/1-6[8:1],
7-4[8:1],7b/5-2[8:1],3-8[8:1],3b/1,
7-3[8:1]/1-5[8:1],,6-2[8:1]/4-8[8:1],,84,8p4[4:1]/4p8[4:1],,,
8b/1-5[8:1],1b/7-3[8:1],7b/8-4[8:1],8b/5-8[8:1],
5b/4-8[8:1],4b/6-2[8:1],6b/1-4[8:1],1b/8,
2-7[8:1]/3^8[8:1],,7-2[8:1]/6^1[8:1],,
1-5[8:1],8-4[8:1],3b,
3^6[8:1]/6^1[8:1],,2^7[8:1]/7^4[8:1],,
7^4[8:1]/1^4[8:1],,
{8}
8^5[4:1]/2^5[4:1],,,,,1b,,,,
1,1-5[2:1]/2-6[2:1],,,,,,
{4}
,6,,
8-4[2:1],,,,1-5[2,1],,,
1^4[4:1],4^7[4:1],7^2[4:1],2^5[4:1],5^8[4:1],8^3[4:1],
3^6[4:1],6p3[1:1],
{1}
,,
E
&amsg_time=
&amsg_content=
&inote_5=
(116){16}
1,,8,,2,7,,2,,6,5,,3,4,,,
5,,4,,6,3,,6,,7,8,,2,1,
{32}
8,1,8,1,
{16}
8,,5,,7,4,,7,,1,2,,5,6,,,
1,,4,,2,7,,4,6,,8,8,4,8,8,,
7/3,8,8,,1b/5b,2,6,2,7/3,,4,4,1b/5b,2,,,
2/6,3,3,,4b/8b,5,1,5,2/6,,3,3,4b/8b,1,,,
7/3,6,6,,1b/5b,6,2,6,7/3,,6,6,1b/5b,8,,,
2/6,5,5,,4b/8b,1,5,1,2/6,,1,1,4b/8b,3,,,
1,,2,,3,,5,,,,,,,,,,
8,,7,,6,,4,,,,,,,,,,
3,,4,,5,,6,,8,,,5,,,3,,
1,,2,,3,,4,,6,,,5,,,,,
1,,,1,,,1,,6,,,,2,,3,,
4,,7,4,,,5,,1,,,,2,,2,,
7,,,6,,,4,,3,,,7,,2,6,2,
1,,8,3,8,,6,5,2,3,4,,7b,7b,7b,7b,
2-6[2:1],,,,2h[4:1],,,,,,3,,4,,,,
7-3[2:1],,,,7h[4:1],,,,,,6,,5,,,,
4-8[8:1],,,,4b,,,,6-2[8:1],,6,,6b,,,,
6p3[2:1],,,,6h[6:1],,,,,,5,,4,,,,
3>7[2:1],,,,3h[4:1],,,,,,4,,5,,,,
6>2[2:1],,,,6h[4:1],,,,,,7,,8-4[8:1],,,,
8b/1-5[8:1],,,,1b/7^5[8:1],,,,7b/2^4[8:1],,,,
2b,,,,
1b/5,1/5b,1b/5,,2b/6,,3b/7,3/7b,
4,,7,7,3,7,7,,
1,7,7,,2,5,2,5,3,,6,6,4,5,4,,
8,1,1,,7,4,7,4,6,,3,3,5,4,5,,
7,2,2,,8,3,8,3,1,,6,6,2,5,2,,
6,3,3,,5,2,5,2,4,,6,6,3,8,3,,
7/3,8,8,,1b/5b,2,3,4,1/5,,5,4,3b/7b,2,1,,
2/6,3,3,,4b/8b,5,6,7,4/8,,6,7,4b/8b,1,2,,
7/3,8,8,,1b/5b,2,3,4,1/5,,5,4,3b/7b,2,1,,
2/6,3,3,,4b/8b,5,6,7,4/8,,6,7,4b/8b,1,2,,
1,,,,,,8,7,6,,,,,,
{24}
,8,1,8,,,
{16}
,5,,,6,,,,7,,,8,,,
4,,,,,5,6,7,8,,,,2,,,,
1/5,,,2/6,,,3/7,,
8/4,,,7/3,,,6/2,,
8,1,8,,2s6[4:1],,7,2,7h[4:1],,,,,,,,
4,5,4,,6s2[4:1],,3,6,3h[4:1],,,,,,7h[8:3],,
{4}
,
{16}
,,6,5,
{32}
1,2,3,4,8,7,6,5,1,2,3,4,5,6,7,8,
{4}
1h[2:1],,5,,
{16}
8,,,,,,
{32}
2,3,
{16}
,,,,,,,7,4,
4,,,,,,
6,,,,,,,,3,2,
1,,6,,3,,8,,5,,2,,7,,4,,1,,5,,3,,8,,5,,2,,7,,4,,
{24}
3b,2b,1b,,,
{1}
,,
E
&amsg_time=
&amsg_content=
