&title=Danza Pantera
&artist=Feryquitous
&first=0.11
&des=这歌谁投的
&lv_5=14
&inote_5=(150){4},{8}6h[16:1],5h[16:1],{16},7h[16:1],,5h[16:1],,8,,6h[16:1],
,5h[16:1],,7,{8}2h[16:1],4h[16:1],{16},3h[16:1],,4h[16:1],,2,,1h[16:1],
,4h[16:1],,2,{8}6h[16:1],5h[16:1],{16},7h[16:1],,5h[16:1],,8,,6h[16:1],
,5h[16:1],,7,{8},{16}1,2/4,,5,,6,5b,7,3,4,
2b,6,5,7,1b,{8},{16}5,{8}4,7,{16}4,5,{8},7,
4,2,5,{16}5,4,,7,,7,,4,
{8}5,2,2,{16}5,4,{8},2,{16}5,4,{8},2,
5,7,{16}4,5h[32:1],3h[32:1],4,{8},{4}1<3[4:1],
{16}6h[4:1],{8},,,{16}2,{8},7-5[8:1],{16},5,{8},{16}3-1[8:1],
{8},{16}1,{8},8-4[8:1],{16},4,{8},{16}1-3[8:1],{8},{16}3,
{8},6,{16}7-5[8:1],7,,5,{8},3-1[8:1],{16},1,{8},{16}8-4[8:1],
{8},{16}4,{8},1,{16}2,4,{8}3,{4}5>2[8:1]/7qq5[8:1],
5/7,{16}1-3[8:1],1,,3,{8},7-5[8:1],{16},5,{8},{16}8-4[8:1],
{8},{16}4,{8},7-5[8:1],{16},5,{8},{16}1-3[8:1],{8},{16}3,
{8},8,,7/5,{16}4,5,{8},3/4,{16}2,1,
{8},2/8,,1>4[8:1],4<7[8:1],1,{4}8w4[8:1],
8b,{16}6/1-5[8:1],{8},{16}7,1,8,{8},{16}6,4,,7,
5,6,3,4,1-5[8:1],{8},{16}7,1,8,{8},{16}6,4,{8}5,
{4}2/4h[8:1],{16}6/1-5[8:1],{8},{16}7,1,8,{8},{16}6,4,,7,
5,6,3,4,1-5[8:1],{8},{16}7,1,8,{8},{4}8-4[8:1]/4-2[8:1],
8/4,{16}3/8-4[8:1],{8},{16}2,8,1,{8},{16}3,5,,2,
4,3,6,5,8-4[8:1],{8},{16}2,8,1,{8},{16}3,5,{8}4,
{4}7/5h[8:1],{16}3/8-4[8:1],{8},{16}2,8,1,{8},{16}3,5,,2,
4,3,{8}5,{4}7-5[8:1]/5-1[8:1],5/7,2-5[8:1]/4-8[8:1],
{8}4b/2b,{4},{8}5b/8b-4[16:1],{16},2b-5[16:1],{8},{16}7b-3[16:1],{8},{16}1b>6[16:5],
{8},,,7pp4[2:1],,,,,,,,5b/1b-5[16:1],
{16},6b-3[16:1],{8},{16}2b-5[16:1],{8},{16}8b-4[16:1],
{8},1b>6[8:3],{4},6,8w4[8:1],
8b,{16}6,4,5,3,7,4,6,5,8,3,5,4,
6,2,5,3,4,1,7,5,6,4,5,3,5,4,7,5,
6,2,4,3,5,4,6,4,5,2,4,3,8b,1,6,5b,
8,4,6b,3,8,4b,5,3,6b,2,7,1b>4[8:1],,,,{32}1b/4b,5,
6,7,{16},,,8,5,6,4,7,2,5,3,4,2,5,1,
4,3,5,2,7b,4,6b,5,7b,4,6,2,{4}8b<5[8:1],
{32}5b/8b,4b,3b,2b,{8},{16}1,4,3,5,2,7,4,6,5,7,4,8,
5,6,4,7,1b,5,3,4b,1b,5,3b,7,5b,6b,{8},{4}4b-8[8:1],
3bq5[2:1],,,,7pp3[8:5],
,,,2h[2:1],
,5h[4:1],
3,1h[2:1],,8,
,7q1[2:1],,,,3pp7[8:5],
,,,8h[4:1],
{8}2h[8:3],{4},{8}5,
{4}4,{32}6,5p3[32:15],{16},,,,,,,{4}1h[2:1],
,2bq5[2:1]*qq6[2:1],,,,{8}7,
5,{16}4,6,,2,,2,,5,
{8}3,7,{16}2,4,3,5,3,5,4,6,2,4,3,5,
3,5,4,6,2,4,3,5,4,6,5,7,4,5,3,5,
4,6,4,5,3,5,4,6,4,6,5,7,3,5,4,6,
4,6,5,7,{8}2-6[8:1],4/8-4[8:1],2,8,1-5[8:1],3/7,
1,8,{16}7,5,6,4,6,4,5,3,7,5,6,4,
6,4,5,3,7,5,6,4,5,3,4,2,5,4,6,4,
5,3,5,4,6,4,5,3,5,3,4,2,6,4,5,3,
5,3,4,2,{8}8-4[8:1],6/2-6[8:1],8,2,{4}8,
{32}5b/7h[8:1],4,3,2,{8}1,,1b/5b-1[16:1],{16},2b-5[16:1],{8},{16}7b-3[16:1],{8},{16}4b>6[16:5],
{8},,,,,8pp5[8:3],,,,,,2b-5[16:1],
{16},6b-2[16:1],{8},{16}3b-8[16:1],{8},{16}7b-3[16:1],
{8},1b>6[8:3],{4},6,8q5[8:1]*p3[8:1],
8b,{16}2-4[8:1],2,,4,{8},1-5[8:1],{16},5,{8},{16}8-6[8:1],
{8},{16}6,{8},1-5[8:1],{16}5,5,{8},{16}2-4[8:1],2,,4,
{8},5,{16}7-5[8:1],7,,5,{8},8-4[8:1],{16},4,{8},{16}1-3[8:1],
{8},{16}3,{8},8-4[8:1],{16}4,4,{8},{16}7-5[8:1],7,,5,
{8},4,{16}2-4[8:1],2,,4,{8},5-2[8:1],{16},2,{8},{16}1-5[8:1],
{8},{16}5,{8},6-1[8:1],{16}1,1,{8},{16}2-6[8:1],2,,6,
{8},8b,,7/5,{16}4,5,{8}3,4/2,{16}8,1,
{8}7,6/4,,5b<8[8:1],8b>3[8:1],5b,{4}4bp7[8:1]*q1[8:1],
4b,{16}2,2,4,3,8,1,6,5,7,7,5,6,
1,8,3,4,1,1,6,5,7,8,6,1,7b-4[16:1],{8},{16}3b,
{8},1b,{32}5,6,7,1,2,3,{16},{8}7,8b-3[16:1],{16},8b/5bw1[16:1],{8},{4}5b,
{16}7,7,1,8,3,4,2,2,{8}8b,6b/4b,
8b/1b,2b/5b,7h[8:1],{16}4,5,{8}3,7h[8:1],{16}4,5,{8}2,
{16}7h[16:3],{8},{16}1,{8}8,7h[8:1],{16}4,5,{8},5/7h[8:1],{16}4,5,
{8},7h[8:1],{16}3,3,4,2,8,1,5,4,6,6,5,7,
4,5,3,4,{32}2,1,8,7,6,5,4,3,{16}8,8,5,6,{8}4<8[8:1],3,
{4}2b,{16}8/2-5[8:1],{8},{16}1,2,8,{8},{16}6,4,,3,
4,1,8,2,7-4[8:1],{8},{16}8,7,1,{8},{16}3,4,{8}2,
{4}6/5h[8:1],{16}8/2-5[8:1],{8},{16}1,2,8,{8},{16}6,4,,3,
4,1,8,2,7-4[8:1],{8},{16}8,7,1,{8},{4}2b-5[8:1]/4b-8[8:1],
4b/2b,{16}7/5-2[8:1],{8},{16}7,5,6,{8},{16}5,3,,8,
1,7,2,5,4-7[8:1],{8},{16}2,4,3,{8},{16}1,8,{8}2,
{4}4/3h[8:1],{16}7/5-2[8:1],{8},{16}7,5,6,{8},{16}5,3,,8,
1,7,2,6,3b-7[16:1],{8},{16}3b/8b-4[16:1],{8},8b/2b-5[16:1],{16},2b/7b-3[16:1],{8},7b/2bqq5[1:1],
1bV35[8:7],
E
