&title=チルドレンレコード
&artist=じん feat. IA
&first=0.586
&des=Kurage
&lv_5=13+
&inote_5=(210)
{8}
1-5[4:2],,,,7h[4:1],,,7h[4:1],,5,5,,6,,4,4,
5-1[4:2],,,,3h[4:1],,,3h[4:1],,1,1,,2,,8,1,
8-4[4:2],,,,2h[4:1],,,2h[4:1],,4,4,,3,,5,5,
4-8[4:2],,,,6h[4:1],,,6h[4:1],,8,8,,7,,1,8,
1pp1[8:5],,,,8h[4:1],,,7h[4:1],,8,8,,17,,5,5,
3pp3[8:5],,,,7h[4:1],,,8h[4:1],,1,1,,26,,7,3,
8qq8[8:5],,,,1h[4:1],,,2h[4:1],,1,1,,82,,4,4,
6qq6[8:5],,,,2h[4:1],,,,
{8}2bV41[8:3]/7bV58[8:3],2b/7b,{4},,36,
{8}2b/4b,3,26,{16}7,8,{8}7-5[8:1],4,4,,
{8}43,2,37,{16}6,5,{8}6-4[8:1],3,3,,
{8}12,3,26,{16}7,5,{8}7-3[8:1],1,1,,
{8}24,3,75,6,1-4[8:1]/5-8[8:1],,,,
{8}7b/5b,6,73,{16}2,1,{8}2-4[8:1],5,5,,
{8}56,7,62,{16}3,4,{8}3-5[8:1],6,6,,
{8}7bpp2[8:9]/3b,3bpp6[4:4]/7b,{4},,,
{4},,{8},8-4[8:1],8,4,
{8},3-1[8:1],,6-4[8:1],,2h[4:1],,5,,5,4-2[8:1]/6,,8-4[8:1],,1,1,
{8}5,3-1[8:1],,6-4[8:1],,3h[4:1],,7,,{16}6,5,{8}6,3,{16}5,4,5,4,{8}5,36,
{8},6-8[8:1],,3-5[8:1],,7h[4:1],,4,,4,5-7[8:1]/3,,1-5[8:1],,8,8,
{8}4,6-8[8:1],,3-5[8:1],,6h[4:1],,8>3[8:1],,5<8[8:1],,5,4,4,36,3b-7[8:1]/6b,
{8}
,8,8-4[8:1],,1-3[8:1],1,6,6,5-8[8:1],7-4[8:1],,,,1,28,3/7q3[16:3],
,3q7[16:3],4,,4-1[8:1],,8,8<5[8:1],,3>8[8:1],,34,,6,57,6b-2[8:1],
,1,1-5[8:1],,8-6[8:1],8,3,3qq4[8:3],,5,,7,,8,71,6/2-6[8:1],
,7,7-3[8:1],,4-1[8:1],4,8,8b,,36,36,{16}5,4,{8}5,4,5,3b>6[8:5]/4,
,,4,,5h[8:3],,,,4,54,,3,42,,6,6b<3[8:5]/5,
,5,5,,4h[8:3],,,,5,54,,6,57,,3,3qq3[4:2],
,5,5,,7qq7[4:2],,,,1,1h[4:1],,8,27,,45,,
6pp6[4:2],4,4,,2pp2[4:2],,,,8,8w4[4:1],8,,,,,2b<5[8:5]/6,
,,5,,4h[8:3],,,,3,34,,1,28,,7,7b>4[8:5]/3,
,4,4,,5h[8:3],,,,6,65,,8,1/7-3[8:1],,3,,
4/2-8[8:1],,6,6-4[8:1],,2-6[8:1],,8,,57,4,5,24,,1>4[8:1]/8<5[8:1],,
,,36,,5,4,27,,{16}8,1,7,2,8,1,6,3,{4}8bw4[8:1],,
{8}
1-6[8:1]/2-5[8:1],,1b/2b,,7-3[8:1]/8,,3,1V35[4:1],
,5-2[8:1],6,8-4[8:1],,1,1,5,
2-5[8:1]/6-1[8:1],,2b/6b,,3-7[8:1]/7,,1,1<6[8:1],
,1/5-1[8:1],,5/7-3[8:1],,7b/8b,,2h[4:1]/4,
,6>3[8:1],3-7[8:1],2,1-5[8:1],,6,6h[4:1],
,2>5[8:1],5-1[8:1],6,7-3[8:1],,8,8bp3[4:1]*<3[4:1],
,,,,12,3<6[8:1]/8,,7-3[8:1],
,2-6[8:1],2,8-4[8:1],8,1-5[8:1],1,8,
8bw4[8:1],,8b,,2<7[8:1]/6,,4-8[8:1],4,
1-5[8:1],1,7<4[8:1],7,3,1-4[8:1]*-6[8:1],,1b,
,73,7>2[8:1]/3,,5-1[8:1],5,8-4[8:1],8,
2>5[8:1],2,6,8,4,3V14[4:1]/7V58[4:1],,3b/7b,
,,2<6[4:1],,6>2[4:1],,2,1-4[8:1],
,1/8-5[8:1],,7-3[8:1]/8,,4w8[8:1]/7,,4b,
{8},,{16}6,5,6,7,{8}6,6,6,8/7h[4:1],
{8},1,{16}2,1,2,3,{8}2,2,2,4/3h[4:1],
{8},5,{16}6,5,6,7,{8}6,6,6,8/7h[4:1],
{8},{16}1,8,1,2,3,4,6,7,8,1,{8}5,1b/5b,
{8},,{16}3,4,3,2,{8}3,3,3,1/2h[4:1],
{8},8,{16}7,8,7,6,{8}7,7,7,5/6h[4:1],
{8},4,{16}3,4,3,2,{8}3,21,18,8b/7bpp2[8:5],
{1},
{1}
4qq4[4:3]/5,8qq8[4:3],2qq2[4:3],6qq6[4:3],
1-4[4:2],8-5[4:2],{4}3h[4:2]/6h[4:2],,,{4}4-2[8:1],5-7[8:1],4-1[8:1],5-8[8:1],,
{8}
2h[4:1],,4,,3<5[8:1],,6,,6h[4:1],,4h[4:1],,2,2,,
3/7h[8:3],,,5,,6>4[8:1],,3,,3h[4:1],,5h[4:1],,7,7-2[8:1],,5<4[8:5],{1},
{4}3-6[8:1]/6-3[8:1],,1b/8b,
{8}
8-4[8:1]/7-3[8:1],,8b/7b,,2-6[8:1]/1,,6,8bV64[4:1],
,4v7[8:1],3,1-5[8:1],,8,8,4,
7v4[8:1]/3v8[8:1],,7b/3b,,6-2[8:1]/2,,8,8b>3[8:1],
,8/4q8[8:1],,4/2-6[8:1],,2b/1b,,7h[4:1]/5,
,3<6[8:1],6p2[8:1],7,8-4[8:1],,3,3h[4:1],
,7<4[8:1],4q8[8:1],3,2-6[8:1],,1,1b>5[16:3]*<5[16:3],
,,,,7v4[8:1]/1v4[8:1],,71,,2-6[8:1],2,
7-3[8:1],7,1-5[8:1],1,8-4[8:1],8,
1bw5[8:1],,1b,,7>2[8:1]/3,,5-1[8:1],4,
8-4[8:1],7,2>5[8:1],1,6,8w4[8:1],,8b,
,26,2<7[8:1]/6,,4-8[8:1],5,1-5[8:1],2,
7<4[8:1],8,3,1,5,6bqq6[4:1]/2bqq2[4:1],,6b/2b,
,,7V13[4:1],,3V57[4:1],,7,8-4[8:1],
,8/1-6[8:1],,2-5[8:1]/1,,7-3[8:1]/2,,7b/8b-4[8:1],,1b-5[8:1]/8b,
,1b/2b-6[8:1],,8bw4[8:1]/2b,,8b,,12,
34,56,78,{16}1-5[8:1],5,3,7,{4}1b,{8},
{1},
