&title=Muspelheim
&artist=Columba (Daily vs Roon_kun)
&first=0
&des=夜梨
&lv_2=6
&lv_3=9+
&lv_4=12+
&lv_5=14
&inote_2=(155)
{1},
{16},,,,,,,,,,,
1,,,,,,,,,,,,,,,,
2,,,,,,,,,,,,,,,,
3,,,,,,,,,,,,,,,,
4,,,,,,,,,,,,,,,,
5,,,,,,,,,,,,,,,,
6,,,,,,,,,,,,,,,,
7<1[4:6],,,,,,,,,,,,,,,,
,,,,,,,,,,,,,,,,
1,,,,,,,,2,,,,,,,,
3,,,,,,,,4,,,,,,,,
5,,,,6,,,,7,,,,8,,,,
1,,,,2,,,,3,,,,4,,,,
5,,,,5,,,,5,,,,5,,,,
4,,,,4,,,,4,,,,4,,,,
3-6[4:2]/6,,,,,,,,,,,,,,,,
,,1b,,,,,,,,,,,,,,
8b,,,,,,,,45,,,,6,,,,
1,,,,2,,,,3,,,,4,,,,
5,,,,6,,,,7,,,,8b,,,,
1,,,,2,,,,3,,,,4,,,,
5,,,,6,,,,7,,,,8b/1b,,,,
25,,,,25,,,,25,,,,,,,,
47,,,,,,47,,,,,,47,,,,
18,,,,27,,,,36,,,,4-1[4:2]/5-8[4:2],,,,
,,,,,,,,,,,,36,,,,
1,,,,1,,,,2,,,,2,,,,
3,,,,3,,,,4,,,,4,,,,
5,,,,5,,,,6,,,,6,,,,
7,,,,7,,,,8,,,,8,,,,
1,,,,5,,,,2,,,,6,,,,
3,,,,7,,,,4,,,,8,,,,
3,,,,7,,,,2,,,,6,,,,
1s5[4:2],,,,,,,,,,,,,,,,
4h[4:1]/5h[4:1],,,,,,,,2h[4:1]/7h[4:1],,,,,,,,
3h[4:1]/6h[4:1],,,,,,,,18,,,,,,,,
2,,,,3,,,,4,,,,5,,,,
4,,,,5,,,,6,,,,7,,,,
,,8,,,,,,46,,,,3,,,,
,,2,,,,3,,,,4,,,,5,,
,,1,,,,,,53,,,,6,,,,
,,7,,,,,,45,,,,,,,,
1h[4:1]/8h[4:1],,,,,,,,3h[4:1]/6h[4:1],,,,,,,,
2h[4:1]/7h[4:1],,,,,,,,45,,,,,,,,
3,,,,2,,,,1,,,,8,,,,
1,,,,8,,,,7,,,,6,,,,
,,5,,,,,,17,,,,2,,,,
,,3,,,,2,,,,1,,,,8,,
,,4,,,,,,82,,,,7,,,,
,,6,,,,,,18,,,,,,,,
1,,,,,,,,2,,,,,,,,
3,,,,,,,,4,,,,,,,,
5,,,,,,,,6,,,,,,,,
7,,,,,,,,8,,,,,,,,
1,,,,8,,,,1,,,,8,,,,
1,,,,8,,,,1,,,,8,,,,
1w5[4:4],,,,,,,,,,,,,,,,
,,,,,,,,37,,,,3b/7b,,,,
1,,,,2,,1,,2,,,,1,,,,
3,,,,4,,3,,4,,,,3,,,,
5,,,,6,,5,,6,,,,5,,,,
7,,,,8,,7,,8,,,,7,,,,
4,,,,3,,3,,3,,,,24,,,,
1,,,,8,,8,,8,,,,17,,,,
5,,,,6,,6,,6,,,,57,,,,
8<3[4:2],,,,,,,,,,,,,,,,
1,,,,2,,2,,1,,,,23,,,,
4,,,,6,,6,,5,,,,7,,,,
8,,,,7,,7,,8,,,,76,,,,
5,,,,3,,3,,4,,,,2,,,,
4,,,,5,,4,,5,,,,36,,,,
1,,,,8,,7,,8,,,,27,,,,
4w8[4:2],,,,,,,,,,,,,,,,
26,,,,,,,,,,,,,,,,
8,,,,8,,,,7,,,,7,,,,
6,,,,6,,,,5,,,,5,,,,
4,,,,4,,,,3,,,,3,,,,
2,,,,2,,,,1,,,,1,,,,
8,,,,4,,,,7,,,,3,,,,
6,,,,2,,,,5,,,,1,,,,
6,,,,2,,,,7,,,,3,,,,
8z4[4:2],,,,,,,,,,,,,,,,
1,,,,2,,3,,2,,,,34,,,,
5,,,,6,,7,,6,,,,78,,,,
8,,,,7,,6,,7,,,,45,,,,
4,,,,3,,2,,3,,,,12,,,,
{16}
3,,4,,3,,4,,3,,4,,3,,,,
6,,5,,6,,5,,6,,5,,6,,,,
{16}
8<1[4:6]/1,,,,,,,,,,,,,,,,
,,,,,,,,,,,,,,,,
5b,,,,,,,,,,,,,,,,
,,,,,,,,,,,,,,,,
,,,,,,,,,,,,,,,,
,,,,,,,,,,,,,,,,
,,,,,,,,,,,,,,,,
,,,,,,,,,,,,,,,,,,,,,,,,,,,E
&inote_3=(155)
{1},
{16},,,,,,,,,,,
1-5[4:2],,,,,,,,,,,,,,,,
2-6[4:2],,,,,,,,,,,,,,,,
3-7[4:2],,,,,,,,,,,,,,,,
4-8[4:2],,,,,,,,,,,,,,,,
2>5[4:2],,,,,,,,,,,,,,,,
6<1[4:2],,,,,,,,,,,,,,,,
4h[4:6]/5h[4:6],,,,,,,,,,,,,,,,
,,,,,,,,,,,,,,,,
1,,,,2,,,,3,,,,4,,,,
5,,,,6,,,,7,,,,8,,,,
15,,,,26,,,,37,,,,48,,,,
48,,,,37,,,,26,,,,15,,,,
3,,4,,2,,5,,1,,6,,1,,,,
6,,5,,7,,4,,8,,3,,8,,,,
1-5[4:2]/6,,,,,,,,,,,,,,,,
,,1b/8b,,,,,,,,,,,,,,
1b/8b,,,,,,,,37,,,,45,,,,
34,,,,17,,,,56,,,,28,,,,
34,,,,17,,,,56,,,,3b/8b,,,,
12,,,,46,,,,78,,,,35,,,,
12,,,,46,,,,78,,,,2b/7b,,,,
3,,4,,2-5[8:1],,,,,,,,,,,,
47,,,,,,25,,,,18,,27,,,,
6,,5,,7-4[8:1],,,,3,,,,2-5[8:1],,,,
6,,,,,,,,45,,45,,45,,,,
1h[16:3],,,8,,,1,,2h[16:3],,,1,,,2,,
3h[16:3],,,2,,,3,,4-1[8:1],,,,,,,,
8h[16:3],,,1,,,8,,7h[16:3],,,8,,,7,,
6h[16:3],,,7,,,6,,5-8[8:1],,,,,,,,
4h[16:3],,,5,,,4,,3h[16:3],,,4,,,3,,
2h[16:3],,,3,,,2,,1,,5,,2,,6,,
5h[16:3],,,4,,,5,,6h[16:3],,,5,,,6,,
4w8[4:2],,,,,,,,,,,,,,,,
45,,,,2,,,,45,,,,7,,,,
45,,,,2,,,,45,,,,3,,4,,
3h[16:3],,,4,,,25,,6,,7,,8,,,,
6h[16:3],,,5,,,74,,3,,2,,1,,,,
,,45,,,,6,,78,,,,6,,5,,
,,4,,,,3,,4,,3,,4,,3,,
,,4,,,,6,,5,,6,,5,,6,,
,,7,,6,,5,,4,,5,,4,,,,
18,,,,3,,,,18,,,,6,,,,
18,,,,3,,,,18,,,,2,,1,,
2h[16:3],,,1,,,38,,7,,6,,5,,,,
7h[16:3],,,8,,,61,,2,,3,,4,,,,
,,18,,,,7,,65,,,,7,,8,,
,,1,,,,2,,1,,2,,1,,2,,
,,1,,,,7,,8,,7,,8,,7,,
,,6,,7,,8,,1,,8,,1,,,,
8h[4:2],,,,,,,,4h[4:2],,,,,,,,
7h[4:2],,,,,,,,3h[4:2],,,,,,,,
6h[4:2],,,,,,,,2h[4:2],,,,,,,,
5h[4:2],,,,,,,,1h[4:2],,,,,,,,
5,,4,,6,,3,,7,,2,,8,,1,,
8,,1,,8,,1,,8,,1,,8,,1,,
8w4[4:4],,,,,,,,,,,,,,,,
,,,,,,,,3b,,5b,,7b,,,,
45,,3,,4,,3,,4,,3,,45,,,,
54,,6,,5,,6,,5,,6,,54,,,,
34,,2,,3,,2,,3,,2,,34,,,,
65,,7,,6,,7,,6,,7,,65,,,,
18,,2,,1,,2,,1,,2,,18,,,,
81,,7,,8,,7,,8,,7,,81,,,,
21,,3,,2,,3,,2,,3,,21,,,,
1>7[4:2],,,,,,,,,,,,,,,,
45,,2,,4,,2,,4,,2,,17,,,,
54,,7,,5,,7,,5,,7,,82,,,,
18,,3,,1,,3,,1,,3,,46,,,,
81,,6,,8,,6,,8,,6,,53,,,,
18,,18,,18,,18,,27,,27,,45,,,,
36,,36,,27,,27,,18,,18,,36,,,,
4w8[4:2],,,,,,,,,,,,,,,,
5w1[4:2],,,,,,,,,,,,,,,,
7h[16:3],,,6,,,7,,8h[16:3],,,7,,,8,,
1h[16:3],,,8,,,1,,2,,3,,4,,,,
6h[16:3],,,7,,,6,,5h[16:3],,,6,,,5,,
4h[16:3],,,5,,,4,,3,,2,,1,,,,
2h[16:3],,,3,,,2,,1h[16:3],,,2,,,1,,
8h[16:3],,,1,,,8,,7,,3,,8,,4,,
3h[16:3],,,2,,,3,,4h[16:3],,,3,,,4,,
4,,,6,,,8,,1b,,3b,,5b,,,,
45,,2,,4,,8,,6,,2,,4,,3,,
54,,7,,5,,1,,3,,7,,5,,6,,
18,,3,,1,,5,,7,,3,,1,,5,,
81,,6,,8,,4,,2,,6,,8,,4,,
{16}
34,,34,,25,,25,,16,,16,,87,,78,,
56,,56,,47,,47,,38,,38,,12,,12,,
{16}
2>8[4:6]/1,,,,,,,,,,,,,,,,
,,,,,,,,,,,,,,,,
2b/6b,,,,,,,,,,,,,,,,
,,,,,,,,,,,,,,,,
,,,,,,,,,,,,,,,,
,,,,,,,,,,,,,,,,
,,,,,,,,,,,,,,,,
,,,,,,,,,,,,,,,,,,,,,,,,,,,E
&inote_4=(155)
{1},
{16},,,,,,,,,,,
1-5[4:2],,,,,,,,,,,,,,,,
8-4[4:2],,,,,,,,,,,,,,,,
2-6[4:2],,,,,,,,,,,,,,,,
7-3[4:2],,,,,,,,,,,,,,,,
2>5[4:2]/6<1[4:2],,,,,,,,,,,,,,,,
7<4[4:2]/3>8[4:2],,,,,,,,,,,,,,,,
4h[4:6]/5h[4:6],,,,,,,,,,,,,,,,
,,,,,,,,,,,,,,,,
45,,,,46,,,,47,,,,48,,,,
48,,,,38,,,,28,,,,18,,,,
56,,,,57,,,,58,,,,51,,,,
43,,,,42,,,,41,,,,48,,,,
56,,4,,56,,7,,1,8,1,8,1,,,,
43,,5,,43,,2,,8,1,8,1,8,,,,
2-6[4:2]/7,,,,,,,,,,,,,,,,
,,1b/8b,,,,,,,,,,,,,,
1b/8b,,,,,,,,37,,,,45,,6,,
3h[8:1]/4h[8:1],,,,1h[8:1]/7h[8:1],,,,6h[8:1]/5h[8:1],,,,8h[8:1]/2h[8:1],,,,
3h[8:1]/4h[8:1],,,,1h[8:1]/7h[8:1],,,,6h[8:1]/5h[8:1],,,,3b/8b,,,,
2h[8:1]/1h[8:1],,,,4h[8:1]/6h[8:1],,,,7h[8:1]/8h[8:1],,,,5h[8:1]/3h[8:1],,,,
2h[8:1]/1h[8:1],,,,4h[8:1]/6h[8:1],,,,7h[8:1]/8h[8:1],,,,2b/7b,,,,
34,,25,,1-5[8:1]/6-8[8:1],,,,,,,,,,,,
47,,,,,,25,,,,18,,27,,,,
34,,45,,5-8[8:1]/6,,,,1-4[8:1],,,,2-7[8:1],,,,
,,,,,,,,45,,45,,45,,,,
1-4[8:1],,,8,,,7,,6-1[8:1],,,5,,,4,,
3-6[8:1],,,2,,,1,,8-4[8:1],,,,,,,,
8-5[8:1],,,1,,,2,,3-8[8:1],,,4,,,5,,
6-3[8:1],,,7,,,8,,1-5[8:1],,,,,,,,
1-5[8:1],,,2,,,3,,4-8[8:1],,,5,,,6,,
7-3[8:1],,,8,,,1,,2,,3,,4,,5,,
6-3[8:1],,,7,,,8,,7-2[8:1],,,6,,,5,,
4-8[4:2],,,,,,,,,,,,,,,,
45,,,,12,,,,45,,,,78,,,,
45,,,,27,,,,45,,,,36,,4,,
3h[16:3],,,4,,,25,,1-5[8:1]/6-8[8:1],,,,,,,,
6h[16:3],,,5,,,74,,8-4[8:1]/3-1[8:1],,,,,,,,
3,,45,,,,6,,78,,,,2,,3,,
,,5,,,,6,,5,,7,,4,,8,,
3,,1,,,,3,,4,,2,,5,,1,,
,,7,,3,,6,,2,,5,,1,,4,,
18,,,,43,,,,18,,,,65,,,,
18,,,,36,,,,18,,,,27,,1,,
2h[16:3],,,1,,,38,,4-8[8:1]/7-5[8:1],,,,,,,,
7h[16:3],,,8,,,61,,5-1[8:1]/2-4[8:1],,,,,,,,
2,,18,,,,7,,65,,,,3,,2,,
,,8,,,,7,,8,,6,,1,,5,,
2,,4,,,,2,,1,,3,,8,,4,,
,,6,,2,,7,,3,,8,,47,,25,,
4qq5[4:6]/7pp6[4:6],,,,,,,,,,,,,,,,
,,,,,,,,,,,,,,,,
5pp4[4:6]/2qq3[4:6],,,,,,,,,,,,,,,,
,,,,,,,,,,,,,,,,
4,,5,,3,,6,,2,,7,,1,,8,,
1,,6,,1,,4,,1,,2,,1,,8,,
1w5[4:4],,,,,,,,,,,,,,,,
,,,,,,,,4b/5b,,1b/2b,,7b/8b,,,,
18,,3,4,2,4,3,,25,,36,,47,,,,
81,,6,5,7,5,6,,74,,63,,52,,,,
45,,2,1,3,1,2,,38,,27,,16,,,,
1,8,2,7,1,8,2,7,1,,72,,83,,,,
37,,2,1,2,1,2,,38,,45,,16,,,,
62,,7,8,7,8,7,,61,,54,,83,,,,
36,,4,5,4,5,4,,2,6,3,7,2,,1,8,
1>7[4:2],,,,,,,,8b,,,,,,,,
34,,2,3,2,3,2,,14,,25,,36,,,,
65,,7,6,7,6,7,,85,,74,,63,,,,
47,,3,1,3,1,3,,28,,17,,68,,,,
52,,6,8,6,8,6,,71,,82,,31,,,,
3,4,2,5,3,4,2,5,3,4,2,5,3,4,2,5,
3,4,2,5,3,4,2,5,3,4,2,5,3,4,2,5,
1w5[4:2],,,,,,,,,,,,,,,,
8-4[8:1],,,,,,,,37,,,,,,,,
8-5[8:1],,,1,,,2,,3-8[8:1],,,4,,,5,,
6-3[8:1],,,7,,,8,,1-5[8:1],,,,,,,,
1-4[8:1],,,8,,,7,,6-1[8:1],,,5,,,4,,
3-6[8:1],,,2,,,1,,8-4[8:1],,,,,,,,
8-4[8:1],,,7,,,6,,5-1[8:1],,,4,,,3,,
2-6[8:1],,,1,,,8,,7,,6,,5,,4,,
3-6[8:1],,,2,,,1,,2-7[8:1],,,3,,,4,,
45,,,36,,,27,,1b/8b,,2b/7b,,3b/6b,,,,
34,,25,,3,4,2,,6,5,7,4,6,5,6,,
65,,74,,6,5,7,,3,4,2,5,3,4,3,,
21,,38,,2,1,3,,7,8,6,1,7,8,7,,
4,5,3,6,4,5,3,6,{12}4b,5,2,5b,4,7,
{16}
4,5,4,5,3,6,3,6,2,7,2,7,1,8,1,8,
{24}1,2,3,4,5,6,7,8,1,2,3,4,5,6,7,8,1,2,3,4,5,6,7,8,
{16}
1>8[4:6],,,,,,,,,,,,,,,,
1>4[4:2],,,,,,,,,,,,,,,,
2b/6b,,,,,,,,,,,,,,,,
,,,,,,,,,,,,,,,,
,,,,,,,,,,,,,,,,
,,,,,,,,,,,,,,,,
,,,,,,,,,,,,,,,,
,,,,,,,,,,,,,,,,,,,,,,,,,,,E
&inote_5=(155)
{1},
{16},,,,,,,,,,,
6h[4:3]/5>2[4:2],,,,,,,,,,,,,,,,
3h[4:3]/4<7[4:2],,,,,,,,,,,,,,,,
8h[4:3]/3qq5[4:2],,,,,,,,,,,,,,,,
1h[4:3]/6pp4[4:2],,,,,,,,,,,,,,,,
8h[4:3]/2qq5[4:2],,,,,,,,,,,,,,,,
1h[4:3]/7pp4[4:2],,,,,,,,,,,,,,,,
4bV25[4:5]/6bV85[4:5],,,,,,,,,,,,,,,,
,,,,,,,,,,,,,,,,
6h[4:4]/4,,,,4,,,,4,,,,4,,,,
3h[4:4],,,,5,,,,5,,,,5,,,,
7h[4:4],,,,1,,,,1,,,,1,,,,
2h[4:2],,,,8,,,,8,,,2,13,,6,,
45,,3,,45,,7,,2,1,3,8,4,7,3,,
54,,6,,54,,2,,7,8,6,1,5,2,6,,
4b>5[4:4]/5,,,,,,,,,,,,,,,,
,,1bp6[4:2]*q4[4:2],,,,,,,,,,,,,,
1b-5[8:1],,,,,,,,37,,,,37,,6,5,
7-3[8:1]/4h[8:1],,,,2h[8:1]/7-5[8:1],,,,7-3[8:1]/4h[8:1],,,,7-5[8:1]/2h[8:1],,,,
7-3[8:1]/4h[8:1],,,,7-5[8:1]/2h[8:1],,,,7v1[8:1]/4v1[8:1],,,,4b/7b,,,,
2-6[8:1]/5h[8:1],,,,7h[8:1]/2-4[8:1],,,,2-6[8:1]/5h[8:1],,,,2-4[8:1]/7h[8:1],,,,
2-6[8:1]/5h[8:1],,,,2-4[8:1]/7h[8:1],,,,2v8[8:1]/5v8[8:1],,,,5b/2b,,,,
7-4[8:1]/4,,65,,4v1[8:1]/7,,,,34,,,,,,,,
27,,,,,,4/5p1[8:1],,,,56,,7,,,,
2-5[8:1]/5,,34,,5v8[8:1]/2,,,,65,,,,47,,,,
2,,,,,,,,4v2[8:1]/5v7[8:1],,36,,45,,,,
1-5[8:1]/8,,,8,1,,7,,8-4[8:1]/1,,,1,8,,2,,
3h[16:3]/7,,,4,2-6[8:1],,1,,8-4[8:1]/2,,,5,8,,2,,
7-4[8:1]/3,,,8,7,,1,,2-5[8:1]/6,,,1,2,,8,,
1-5[8:1]/8,,,6,1,,7,,1,8,1,,27,,3,,
1-3[8:1],,,8,1-5[8:1],,8,,1-3[8:1],,,8,8-4[8:1]/1,,7,,
8-6[8:1],,,1,8-4[8:1],,1,,8-6[8:1],,1-5[8:1],,8-4[8:1],,1,,
8b,,,3,,,2,,1b/8,,,6,,,7,,
1pp4[4:2]/8qq5[4:2],,,,,,,,,,,,,,,,
7h[4:6]/4-1[8:1],,,,,,,,8-5[8:1],,,,,,,,
6-3[8:1],,,,,,,,2,,,,37,,4,4,
5-7[8:1],,,4,5,,3,,5-1[8:1],,,,,,,,
4-2[8:1],,,5,4,,6,,4-8[8:1],,,,,,,,
3,,4b/5b,,,,6,,7h[4:1]/8,,,,2,,2h[4:1],,
,,5,,,,6,,5,,7,,4,,8,,
34,,1,,,,35,,4,,2,,5,,1,,
,,7,,3,,6,,2,1,2,,4,,6,,
3h[4:6]/8-5[8:1],,,,,,,,4-1[8:1],,,,,,,,
2-7[8:1],,,,,,,,6,,,,73,,8,8,
1-3[8:1],,,8,1,,7,,1-4[8:1]*-6[8:1],,,,,,,,
8-6[8:1],,,1,8,,2,,8-5[8:1]*-3[8:1],,,,,,,,
2,,1b/8b,,,,7,,6h[4:1]/5,,,,3,,3h[4:1],,
,,8,,,,7,,8,,6,,1,,5,,
21,,4,,,,28,,1,,3,,8,,4,,
,,6,,2,,7,,3,4,3,,18,,27,,
1qq4[4:6]/5h[4:1],,,,,,,,6h[4:1],,,,,,,,
5h[4:1],,,,,,,,6h[4:1],,,,,,,,
8pp5[4:6]/4h[4:1],,,,,,,,3h[4:1],,,,,,,,
4h[4:1],,,,,,,,3h[4:1],,,,,,,,
34,,2,,56,,7,,34,,1,,56,,8,,
46,,12,,35,,78,,26,,37,,48,,15,,
2bqq3[4:4]/6bqq7[4:4],,,,,,,,,,,,,,,,
,,,,,,,,2-5[8:1]/7-4[8:1],,18,,2b/7b,,,,
18,,2,1,2,1,3,3,25,,6,,78,,3,4,
25,,7,8,7,8,6,6,47,,1,,25,,8b,,
26,,3,4,3,4,2,2,15,,37,,26,,48,,
2,1,4,7,3,8,5,6,4b/7b,,2b/5b,,7b/8b,,1b/2b,,
37,,4,6,3,5,2,4,15,,37,,48,,26,,
18,,5,3,6,4,7,5,84,,62,,51,,7,8,
16,,3,5,2,4,2,7,5,7,3,4,1,6,5,8,
1s5[8:3],,,,,,,,8-4[8:1],,,,,,,,
26,,1,7,2,8,3,1,48,,26,,15,,37,,
45,,8,2,7,1,6,8,51,,73,,84,,6,,
37,,2,1,2,1,3,3,48,,26,,37,,15,,
3,4,1,6,2,5,8,7,16,,38,,65,,43,,
2,2,8,8,1,1,7,7,{32}2,3,4,5,,,7b,6,5,4,,,1b,2,3,4,
{16}7,7,1,1,8,8,2,2,{32}8,7,6,5,4,3,2,1,8,7,6,5,4,3,2,1,{16}
8bqq4[4:2]*pp4[4:2],,,,,,,,,,,,,,2,,
6,,7,8,,3,,2,1,,4h[8:1]/5h[8:1],,,,,,
8-4[8:1]/1,,,1,8,,2,,1-5[8:1]/8,,,8,1,,7,,
6h[16:3]/2,,,5,7-3[8:1],,8,,1-5[8:1]/7,,,4,1,,7,,
2-5[8:1]/6,,,1,2,,8,,7-4[8:1]/3,,,8,7,,1,,
8-4[8:1]/1,,,3,8,,2,,81,,7,,26,,3,,
1-5[8:1]/8,,,6,1,,7,,8-4[8:1]/1,,,3,8,,2,,
2-5[8:1]/6,,,1,2,,8,,18,,3,,45,,7,,
8-4[8:1]/4,,,3,,,2,,1-5[8:1]/5,,,6,,,7,,
38,,,16,,,27,,4w8[8:1]/5,,36,,4b,,,,
47,,25,,7,8,7,,3,3,4,1,6,6,5,8,
16,,38,,6,5,6,,2,2,1,4,7,7,8,5,
52,,74,,2,1,2,,6,6,4,8,3,3,5,1,
7,3,7,3,6,2,6,2,{12}4/5b,6,7,1b/8,2,3,
{16}
5,4,7,4,5,4,5,2,5,4,8,4,5,4,5,1,
{24}7,2,7,2,7,2,6,3,6,3,6,3,5,4,5,4,5,4,5h[128:1],4h[128:1],5h[128:1],4h[128:1],5h[128:1],4h[128:1],
{16}
5<4[4:6],,,,,,,,,,,,,,,,
5<8[4:2],,,,,,,,,,,,,,,,
2b/6b,,,,,,,,,,,,,,,,
,,,,,,,,,,,,,,,,
,,,,,,,,,,,,,,,,
,,,,,,,,,,,,,,,,
,,,,,,,,,,,,,,,,
,,,,,,,,,,,,,,,,,,,,,,,,,,,E
