&title=NULL APOPHENIA
&artist=N²
&first=0
&des=None
&lv_5=14
&inote_5=(177)
{4},,,,
{8}7,,7>5[1:1],5>2[8:3],6,,,,,,1,,1h[2:1],,,,{32}5x>5[8:11],6x<3[32:31],{16},,,{4},,,,,4,,
{8}24,,2,4,3h[2:1],5-8[8:3],,,,,,3-6[8:3],,,7,,7h[2:1],,5h[4:3],,,,,,6,,,4h[2:1]/6h[2:1],,,,,
6qq7[4:3]/4,,,8,,,2,,2-6[8:3],,,7,7h[4:1],,,,7qq1[4:3]/5,,,2,,,4,,4^1[8:3],,,8,8h[4:1],,,,
{2}1q7[2:1]/7p1[2:1],,1,2,3bs7>5[2:3]/7bz3>5[2:3],,,,
{8}4xh[8:3]/6xh[8:3],,,,4,,3,4,2xh[8:3]/5xh[8:3],,,,5,,6,4,
{16}7xh[16:3],,,5h[16:3],,,4,,4h[4:1],,,,,,4,3,2xh[16:3],,,8h[16:3],,,6,,6h[4:1],,,,,,6,5,
{8}4xh[8:3]/2xh[8:3],,,,3,,3,{16}5,6,{8}7xh[8:3]/3xh[8:3],,,,37,,,,
8x<2[4:3]/2x,,,,,,1,,1h[4:3],,,,,,,,
{9}1b/8,,2,,{11}3,,4,,5,,8,,{12}7,,6,,{13}15,,2,,{16}3,,4,
{15}8,,8,,8,,{19}8,,6,,6,,6,,6,,{26}6,,
{21}4,,4,,4,,{22}4,,4,,{25}4,,3,,5,,{27}2,,6,,{29}1,,7,,
{29}8,,6,,5,,{31}7,,4,,8,,3,,{38}8,,7,,6,,{40}5,,4,,3,,7,,6,,5,,4,,3,,
{42}2,,{49}6,,7,,8,,1,,2,,3,,4,,5,,6,,7,,8,,1,,{53}2,,3,,4,,5,,6,,{55}7,,8,,1,,2,,3,,4,,5,,
(177.0001)
{4}6bqq3b[2:1]`E1f,,,,
{16}42,,,56,,,4,7v6-4[16:3],2h[4:1],,,,,,,,
3xh[8:1],,4,3h[8:1],,2,3h[8:1],,8h[8:1],,3,8h[8:1],,5,8h[8:1],,
7^1[16:1],,,6^4[16:1],,,2,,2z6[32:5],,,,,,,,
8xh[8:1],,4h[16:3],8,,6h[16:3],4,,2,,51,51,,,2,4,3xh[8:1],,8h[16:3],3,,5h[16:3],8,,6,,6,5,7,3,4,2,
6xh[8:1],,1,8h[8:1],,2,4,,3xh[8:1],,8,1h[8:1],,7,5,,
6x,6h[8:1],,4h[16:3],,,2,,2xh[16:3],,,4h[8:1],,6,6,,
3x/7x,,,4,6,,2,,35,,,35,,3,8,2,8-5[8:1],,,,1>6[16:5],,,,7x,,7xh[4:1],,,,,,
8x/7x,,,1,1,,8,,2-6[8:1],,6V41[4:1],,2,,,,
8h[8:1],,,8h[8:1],,,7/1^7[8:1],,7q3[8:1]/1,,,,,,,,
6xh[8:1],,2h[16:3],6,,8h[16:3],2,,4,,37,37,,,8,2,1xh[8:1],,4h[16:3],1,,7h[16:3],4,,5,,5,7,4,8,3,1,
2xh[8:1],,5,4h[8:1],,6,8,,7xh[8:1],,4,5h[8:1],,3,1,,
2x,2h[8:1],,5h[16:3],,,8,,8xh[16:3],,,6h[8:1],,3,3,,
5,5,,2h[16:3],,,1,,12,,,47,,7,4,5,2-6[8:1],,,,8<3[16:5],,,,1x,,1xh[4:1],,,,,,
1b,,,,,,,,,5,4,6,{32}3,5,{16}4,5,4,5h[16:13],,,,,,{8}3h[16:7],,,,,
{16}2x-4[8:1],,1,6,2,,6,,7h[8:1],,,7/3h[8:1],,,5h[8:1]/1,,
1x-7[8:1],,2,4,1,,4,,5-7[8:1],,,1,5,,,,
2xh[8:1],,6,8h[8:1],,6,4,,6xh[8:1],,2,8h[8:1],,2,4,,
3x,3h[8:1],,5h[16:3],,,7,,7xh[16:3],,,5h[8:1],,3,3,,
6x/2x,,,5,3,,7,,64,,,64,,6,1,7,1^4[8:1],,,,8qq1[16:5],,,,2x,,2xh[4:1],,,,,,
2b,,2,4,3,5,4,,57,,57,,4,8,3,1,2xpp4[16:3],,,4p8[16:3],,,6,,6h[8:3],,,,,,,,
2,4,3,7,3,5,2,5,4,6,4,2,8,3,7,4,
6,5,7,3,7,1,4,1,6,8,5,1,4,2,5,3,
6x-1[8:1],4,,4,6,,2,,2,1,3,8,2,7,8,6,1x-4[8:1],5,,5,1,,7,,7,4,6,5,6,3,4,2,
5,1,,7,1,,26,,34,,,34,,5,2,,43,,45,,5b/6b>1[16:5],,,,8,,8h[4:1],,,,,,
(88.5)
{16}8x-5[8:1],,,,,,1-4[8:1],,,,,,8,,7^4[8:1],,,,3,,2-6[8:1],,,,5,,,7,7h[8:3],,5h[4:1],,,,,,
6-3[10:1],,4/6,,,2,2h[4:1],,{32}4,5,6,,6,,,,
{16}2,3,4^1[8:1],,56,,4/7h[4:1],,,,,,7,6,5^8[8:1],,1,5,3,,{32}3,4,5,,5h[8:1],,,,
{16}7,,7,6,5,4,32,,14,,58,,6h[8:3]/7,,4,4h[16:3],,,,,4,6,{24}5,5,5,
{16}5h[8:3],,7>3[4:1],,,,7,,,,5,,3h[8:3],,1<5[4:1],,,,1,3,3,,2,,
42,,2,5,2,6,2,,26,,37,,48,,8,3,8,,82,,81,,18,27,
{4}3xpp5>1[2:1]/6xqq4<8[2:1],,,,{8}18,1h[4:1]/8h[4:1],,,
(177)
{16}2,,4,3,6,,75,,8-4[8:1],4,,,2h[8:1],,,2h[8:1],,,2s6[16:5],,3v8[16:3],,4,,,,,,,,,
51,1xV35[16:3]/5x,,,,6h[8:1],,,6h[8:1],,,7,8,1p5[16:3],,,5qq3[16:3],,,3<8[16:5],,1h[4:3],,,,{4},,
{16}8,,,8h[16:3],,,6h[16:3],,,2,,2h[16:3],,,4h[16:3],,,6h[16:3],,,2,1,8h[8:1],,7,,61,,
5/2^5[8:1],,,5,2,,7-3[8:1],,7,,7,5,,,5x^2[8:1]*^8[8:1],,,,5x,,,,1h[64:1],,{8}1b,,,
2qq3[2:1],,4,4,,6,6h[4:1],,{16}3,,7,3,,1,3h[4:1],,,,4,2,5,1h[16:3],,,{24}5x,6x,7x,{16}8p3[16:3],,,,
8x/2xh[8:1],,,2h[8:1],,,{12}1,1,1,{16}1h[16:3],,,4h[16:3],,,3,,,3,5,,3,5,2,6,
1-5[8:1],,,,1,,6,,7-1[8:1],,5,,7,,3,,3-7[8:1],,,,3,,6,,5-3[8:1],,8,,5,,2,,
2h[4:1],,,,4,,2,4,,,42,,51,,68,,7h[4:1],,,,5,,7,5,,,57,,48,,31,,
2-4[8:1],,,5-2[8:1],,,7,,8h[4:1],,,,2-8[8:1],,,7-2[8:1],,,5,,4h[4:1],,,,
2^4[8:1],,,5q2[16:3],,,7,,7h[4:1],,,,3-6[16:3],,,6p1[32:5],,,8,,8h[4:1],,,,
1,,7,1,,6,1,,5h[16:3],,,3h[16:3],,,8,,
8,,3,8,,3,8,,8,4,,8,,4,8,,8,,5,8,,5,8,,8,,6,8,,6,8,6V42-8[2:1],7bh[8:3],,,,,,,,,,,,6,,,,1,5,2,5,3,5,4,5,5,5,6,5,7,5,8,5,
1x-3[10:1],,,6-4[10:1],1,,6,,2h[4:1],,,,1x-7[10:1],,,4-2[10:1],1,,4,,6,,5,,
4x-8[8:1]/2x,,,2-6[8:1],4,,2,,7h[4:1],,,,5-2[8:1],,,7-4[8:1],5,,7,,1,,8,,
8x-2[10:1],,,5-7[10:1],8,,5,,3h[4:1],,,,8x-6[10:1],,,3-1[10:1],8,,3,,5,,4,,
3x-7[8:1]/1x,,,1-5[8:1],3,,1,,6h[4:1],,,,4-1[8:1],,,6-3[8:1],4,,6,,1,,2,,
2x-8[10:1],,,4pp6[7:1],2,,4,,1h[4:1],,,,6x-2[8:1],,,3^5[8:1],6,,3,,1,,8,,
5x-1[8:1]/7x,,,7-3[8:1],5,,7,,2xh[4:1],,,,4-7[8:1],,,2-5[8:1],4,,2,,8,,1,,
1x-5[10:1],,,3^8[7:1],1,,3,,7h[4:1],,,,5x-1[8:1],,,8^6[8:1],5,,8,,2,,3,,
4x-8[8:1]/6x,,,6-2[8:1],4,,6,,1xh[4:1],,,,3-6[8:1],,,1-4[8:1],3,,1,,7,,8,,
8h[4:1],,,,4h[8:3],,8,,,,6h[8:3],,4,,,,2h[8:3],,,4,,,4h[8:3],,2,,,,3,,3,4,
5h[4:1],,,,7h[8:3],,5,,,,5,,,,7,5,6h[8:5],,,,4,,4h[4:1],,,,,,,,,,
{8}4^1[4:3],,,,,,,,{32}5p1[4:3],4,{16},{8},,,,,,,{32}7pp1[8:5],6,{16}5,{8},,,,,,,
{48}4<7[1:1],3bs7b[19.4#32:9],2<4[1:2],
