&title=Suomi
&artist=Aire
&first=0
&des=Hermit
&clock_count=4
&lv_6=12
&inote_5=
&inote_6=(125)
{1},
{16}
7qq4[8:5]/4b,,,,,,3,,,,2,,,2,,,
1pp8[8:5],,,,,,8,,,,7,,,7,,,
2pp5[8:5],,,,,,6,,,,7,,,7,,,
8qq1[8:5],,,,,,1,,,,2,,,2,,,
3qq8[8:5]/8,,,,,,7,,,,6,,,6,,,
5pp4[8:5],,,,,,4,,,,3,,,3,,,
2pp5[8:5],,,,,,6,,,,7,,,7,,,
8V61[8:3],,,,,,1,,,,3,,,,,,
2h[4:1]/7h[4:1],,,,,,
1/8,,,,1h[8:1]/7h[8:1],,,6h[8:1]/8h[8:1],,,
7h[4:1]/5h[4:1],,,,,,
1/8,,,,8h[8:1]/2h[8:1],,,3h[8:1]/1h[8:1],,,
2h[4:1]/4h[4:1],,,,,,
1/8,,,,1h[8:1]/7h[8:1],,,6h[8:1]/8h[8:1],,,
7h[4:1]/5h[4:1],,,,,,
1/8,,,,8/2,,37,,,,
{8}
2-5[8:1]/6,,2/8-4[8:1],,8/3-1[12:1],,35,,
7-4[8:1]/3,,7/1-5[8:1],,1/6-8[12:1],,64,,
1-5[8:1],8-6[12:1],1,8,
{16}
1,,3,4,,6,5,,
{4}
2-6[8:1],2/8-4[8:1],8-2[12:1]*-6[12:1],8w4[8:1],
{16}
8b,,,,
2,5,3,4,2^7[8:1],,7>3[6:1],,5,,6,,7,,46,,1,7,3,5,1-4[8:1],,5,,1w5[8:1],,8,,
1b,,,,
3,5,2,7,3-8[8:1],,8V25[6:1],,5,,6,,
7,,64,,7^4[8:1],8,,,1b^4[8:1]/7,,,,1bw5[8:1]/5,,,,
1b,,,,
2,5,3,4,2-6[8:1],,6-2[8:1],,5,,7,,8,,13,,3,4,2,4,1-6[8:1],,7,,1w5[8:1],,5,,
1b,,,,
4,5,3,6,1-5[8:1],,5-2[8:1],,6,,7,,
6,,35,,
4q5[4:1],5,,,5^7[12:1],,,,8-4[12:1],,,,8b,,,,
7,4,6,5,7^2[8:1],,2<6[6:1],,4,,3,,2,,53,,8,2,6,4,8-5[8:1],,4,,8w4[8:1],,1,,8b,,,,6,4,7,2,6-1[8:1],,1V74[6:1],,4,,3,,2,,35,,2^5[8:1],1,,,8b^5[8:1]/2,,,,8bw4[8:1]/4,,,,8b,,,,7,4,6,5,7-3[8:1],,3-7[8:1],,4,,2,,1,,86,,6,5,7,5,8-3[8:1],,2,,8w4[8:1],,4,,8b,,,,5,4,6,3,8-4[8:1],,4-7[8:1],,3,,2,,3,,64,,5p4[4:1],4,,,4^2[12:1],,,,1-5[12:1],,,,
1b>7[8:14],,,,,,,,,,,,,,,,,,,,,,,,,,,,,,,,8<2[8:13],,,,,,,,,,,,,,,,,,,,,,,,,,,,,,,,
{16}
2pp5[8:6]/6,,,,,,7,,,,8,,,8,,,
1qq6[8:6],,,,,,2,,,,3,,,3,,,
4qq8[8:5],,,,,,5,,,,6,,,6,,,
7p5[8:4],,,,,,2,,,,4,,,,,,
2h[4:1]/7h[4:1],,,,,,
1/8,,,,1h[8:1]/6h[8:1],,,5h[8:1]/8h[8:1],,,
7h[4:1]/4h[4:1],,,,,,
8/1,,,,8h[8:1]/3h[8:1],,,4h[8:1]/1h[8:1],,,
2h[4:1]/5h[4:1],,,,,,
1/8,,,,1h[8:1]/6h[8:1],,,5h[8:1]/8h[8:1],,,
7h[4:1]/4h[4:1],,,,,,
1/8,,,,8/2,,46,,,,
{8}
2-4[12:1]/8,,2/5-1[8:1],6,5/7-3[8:1],,37,2,
7-5[12:1]/1,,7/4-8[8:1],3,4/2-6[8:1],,62,7,
8-4[8:1],1-3[12:1],8,1,8,
{16}
7,5,,2,4,,
{8}
2-6[8:1],1,6-2[8:1],7,8w4[8:1],,8,,2b/6b,,
{16}
2-8[12:1],6,3,5,2-4[12:1],,7-3[8:1],,28,,7,,
2h[8:1],,5,,3v6[8:1],5,1,5,3-1[12:1],,5,,3-7[8:1]/4v1[8:1],,5,,3b/4b,,,,
2-5[8:1],8,4,6,2v7[8:1],,7,,28,,6h[8:1],,8-4[8:1],,6,,8-3[8:1]*-5[8:1],7,,,
8b-2[12:1]*-4[8:1],,,,8b-5[8:1]*V64[8:1],,,,8b,,,,
1-5[8:1],6,4,7,1-3[12:1],,6-1[8:1],,17,,6,,2h[8:1],,8,,
1-4[8:1],7,3,5,1-6[8:1],,8,,1v3[8:1]/5v7[8:1],,2,,1b/5b,,,,
2v5[8:1],6,4,8,2^7[8:1],,6,,25,,4,,15,,3,,5p4[4:1],46,,,4>5[4:1]/5,,,,1s5[6:1],,,,1b,,,,
{16}7-1[12:1],3,6,4,7-5[12:1],,2-6[8:1],,71,,2,,7h[8:1],,4,,6v3[8:1],4,8,4,
6^8[10:1],,4,,6p2[8:1]/5v8[8:1],,4,,6b/5b,,,,7-4[8:1],1,5,3,7v2[8:1],,2,,71,,3h[8:1],,1-5[8:1],,3,,1-6[8:1]*-4[8:1],2,,,1b-7[12:1]*-5[8:1],,,,1b-4[8:1]*V35[8:1],,,,1b,,,,8-4[8:1],3,5,2,8-6[12:1],,3-8[8:1],,82,,3,,7h[8:1],,1,,
8^5[8:1],2,6,4,8^3[8:1],,1,,8p4[8:1]/4p8[8:1],,7,,8b/4b,,,,7v4[8:1],3,5,1,7^2[8:1],,3,,74,,5,,84,,6,,4q5[4:1],53,,,5<4[4:1]/4,,,,8z4[6:1],,,,8b,,,,
