&title=蝶々世界
&artist=蝶々P
&first=0.025
&des=老呉
&lv_5=12+
&inote_5=(192){1},
{4}
2pp5[2:1],,,,,8q3[2:1],,,,,1p6[2:1],,,,,1pp4[2:1]/5pp8[2:1],,,,,
7qq4[2:1],,,,,1p6[2:1],,,,,8pp4[2:1],,,,,4V25[2:1]/5V74[2:1],,,,,
{8}
3b>8[8:1]/6b,,7,7p5[8:3],,8,1,2,3,,
2>5[8:1],,6,6q8[8:3],,5,4,3,2,,
1-5[8:1],,6,6p4[8:3],,5,4,3,2,,
3-8[8:1],,7,7,,18,27,36,45,,
6b<1[8:1]/3b,,2,2q4[8:3],,1,8,7,6,,
7<4[8:1],,3,3p1[8:3],,4,5,6,7,,
8-4[8:1],,3,3q5[8:3],,5,6,7,8,,
7-4[8:1],,3,3,,4,4,5,4,,
2h[2:1]/6,,,1,1h[4:1],,8h[4:1],,7h[4:1],,
4p2[2:1],,,5,,,6,,7,,
8h[2:1],,,7,7h[4:1],,6h[4:1],,5h[4:1],,
4pp8[2:1],,,3,,,2,,1,2,
3>7[8:3],,,6,6h[4:1],,5-1[4:1],,6,,
7-4[8:3],,8,,1-4[8:3],,5,,6,,
7<4[4:1],,4>1[4:1],,1<6[4:1],,6>3[4:1],,3>5[2:1]*p5[2:1],,
,,,,,,,,1,,
7h[2:1]/3,,,8,8h[4:1],,1h[4:1],,2h[4:1],,
5q7[2:1],,,4,,,3,,2,,
1h[2:1],,,2,2h[4:1],,3h[4:1],,4h[4:1],,
5qq1[2:1],,,6,,,7,,8,7,
6<2[8:3],,,3,3h[4:1],,4-8[4:1],,3,,
2-5[8:3],,1,,8-5[8:3],,4,,3,,
2>5[4:1],,5<8[4:1],,8>3[4:1],,3<6[4:1],,6<4[2:1]*q4[2:1],,
,,,,,,,,8,,
(192)
{16}
2/5h[2:1],,,,1,8,,,8,1,,,2h[2:1],,,,7,8,,,8,7,,,
6h[2:1],,,,4,5,,,5,4,,,3h[2:1],,,,8,1,,,1,8,,,
7h[2:1],,,,2,1,,,1,2,,,4h[2:1],,,,6,5,,,5,6,,,
36,,,,27,18,,,18,27,,,1h[4:3]/8h[4:3],,,,
(96){8},,,2-5[192#8:1]/7pp4[192#2:1],
(192){8}
2b/7,,,5,5q1[4:1],,,6,
6>2[4:1],,2<6[4:1],,6,,3-8[8:1],,
3b/7V51[8:3],,,2,2p5[4:1],,,8,
8>4[4:1],,4<8[4:1],,8,,1,2,
{4}
3-8[8:1],7-4[8:1],2-5[8:1],6-1[8:1],
4-1[8:1],8-5[8:1],2-7[8:1],6-3[8:1],
8>4[4:1],4<8[4:1],8-4[4:1],4<2[2:1]*>6[2:1],
,,,6-1[8:1]/3pp7[2:1],
{8}
6b/3,,,,8p4[4:1],,,3,
2>6[4:1],,6<2[4:1],,2,,5V71[8:1],,
5b/2p4[4:1],,,8,7q3[4:1],,,1,
1<5[4:1],,5>1[4:1],,1,,8,7,
{4}
6-1[8:1],2-5[8:1],7-4[8:1],3-8[8:1],
5-8[8:1],1-4[8:1],7-2[8:1],3-6[8:1],
1<5[4:1],5>1[4:1],1,3-6[8:1],
3b/7-3[8:1],7b/4-1[8:1]*-7[8:1],4b,2b/6b,
{16}
17,,2,3,{8}46,7,18,2,34,5,
46,3,25,6,47,3,28,7,
26,3,48,7,56,4,13,8,
27,3,45,5,36,3,27,2,
18,8,2-5[8:1]/7,,6-1[8:1]*-2[8:1],,6,,
3,1,3,6,8,6,18,1,
27,2,36,3,45,4,6,7,
4,4,7,8,3,3,12,1,
38,8,47,7,56,6,7,8,
18,2,3,4,5/6h[4:1],{16}7,8,1,2,3,4,
{8}
5/7-3[8:1],,1-5[8:1]/7,,15,,6,7,
8,1,2-6[8:1]/8,,2/8-4[8:1],,48,,
2,3,4,5,4/6-2[8:1],,4-8[8:1]/6,,
4/7-3[8:1],,2-5[8:1]/7,,1-6[8:1]/2,,1/5-8[8:1],,
5/7-4[8:1],,78,,{16}25,,3,4,5,6,7,8,
{8}
15,5,5,35,3,3,36,6,
6,6,16,1,1,81,8,8,
28,2,2,2,17,17,17,26,
26,26,35,35,3q1[16:3]/5,35,3/5p7[16:3],,
5,,{16}1,,2,3,4,5,6,7,8,1,2,3,
{1}
8-4[27.4285#56:1]/4h[2:3],{4}8!-4[64#24:1]*-4[64#24:1],,8-4[8:1],8b/3>8[8:1],
{8}
3b/5qq8[2:1],,,1,1v6[8:1],,,7,7q4[4:1],,4<8[4:1],,8,,2,3,
{4}
4-1[8:1],5-8[8:1],6-3[8:1],7-2[8:1],8-5[8:1],1-4[8:1],2-7[8:1],3-6[8:1],
5<1[4:1],1>5[4:1],5-1[4:1],1pp4[2:1]*qq6[2:1],,,,3-8[8:1]/6qq2[2:1],
{8}
3b/6,,,1,1q5[8:1],,,6,
7<3[4:1],,3>7[4:1],,7,,4V28[8:1],,
4b/7q5[4:1],,,1,2p6[4:1],,,8,
8>4[4:1],,4<8[4:1],,8,,1,2,
{4}
3-8[8:1],7-4[8:1],2-5[8:1],6-1[8:1],
4-1[8:1],8-5[8:1],2-7[8:1],6-3[8:1],
8>4[4:1],4>8[4:1],8,7-3[8:1],
8-4[8:1],1-5[8:1],2-6[8:1],3-8[8:1],
{8}
3b/7<2[8:3],,,1,1-5[8:1],,,8,8-3[8:1],,5>1[4:1],,1,,7-4[8:1],,
2p8[8:3]/7b,,,5,5-1[4:1],,,2,2V46[4:1],,6<4[8:3],,2,,5,6,
{4}
7-4[8:1],3-8[8:1],6-1[8:1],2-5[8:1],
8-5[8:1],4-1[8:1],6-3[8:1],2-7[8:1],
4<8[4:1],8>4[4:1],4-8[4:1],8>6[2:1]*<2[2:1],,
,,2-5[8:1]/7pp3[2:1],
{8}
2b/7,,,5,5q2[4:1],,,4,4<8[4:1],,8>4[4:1],,4,,1-5[8:1],,
6pp1[8:3]/1b,,,4,4-7[8:1],,,8,8V24[4:1],,4<2[8:3],,8,,3,4,
{4}
5-2[8:1],6-3[8:1],7-4[8:1],8-5[8:1],1-6[8:1],2-7[8:1],3-8[8:1],4-1[8:1],5-2[8:1],7-4[8:1],1-6[8:1],4-1[8:1]*-2[8:1],4b-6[8:1]*-7[8:1],4bw8[8:1],4b,2b/6b,
{8}
3b>8[8:1]/6b,,7,7p5[8:3],,8,1,2,3,,
2>5[8:1],,6,6q8[8:3],,5,4,3,2,,
1-5[8:1],,6,6p4[8:3],,5,4,3,2,,
3-8[8:1],,7,7,,18,27,36,45,,
6b<1[8:1]/3b,,2,2q4[8:3],,1,8,7,6,,
7<4[8:1],,3,3p1[8:3],,4,5,6,7,,
8-4[8:1],,3,3q5[8:3],,5,6,7,8,,
7-4[8:1],,3,3,,45,45,36,45,,
{8}
6b<1[8:1]/3b,,2,2q4[8:3],,1,8,7,6,,
7<4[8:1],,3,3p1[8:3],,4,5,6,7,,
8-4[8:1],,3,3q5[8:3],,4,5,6,7,,
6-1[8:1],,2,2,,81,72,63,54,,
3b>8[8:1]/6b,,7,7p5[8:3],,8,1,2,3,,
2>5[8:1],,6,6q8[8:3],,5,4,3,2,,
1-5[8:1],,6,6p4[8:3],,4,3,2,1,,
2-5[8:1],,6,6,,45,36,27,36,,
{8}2-5[8:1],,2b/8,7p4[8:3],,4,3,2,1-5[8:1],,1b/7-4[8:1],,4qq1[8:3],3,,5,6,7
,8,,
{8}7-4[8:1],,7b/1,2q5[8:3],,5,6,7,8-4[8:1],,8b/2-5[8:1],,5pp8[8:3],6,,4,3,2
,1b,,,,,,,,,,,,,,,,,,E
&inote_6=(192){1},
{16}4h[4:1],,,5h[16:1],,,3h[4:1],,,2h[16:1],,,1,,2,,3,,,,
{16}6h[4:1],,,5h[16:1],,,7h[4:1],,,8h[16:1],,,6,,7,,8,,,,
{16}4h[4:1],,,5h[16:1],,,3h[4:1],,,2h[16:1],,,1,,2,,3,,,,
{16}6h[4:1],,,5h[16:1],,,2h[4:1],,,1h[16:1],,,18,,27,,36,,,,
{16}5h[4:1],,,4h[16:1],,,6h[4:1],,,7h[16:1],,,8,,7,,6,,,,
{16}3h[4:1],,,4h[16:1],,,2h[4:1],,,1h[16:1],,,3,,2,,1,,,,
{16}5h[4:1],,,4h[16:1],,,6h[4:1],,,7h[16:1],,,8,,7,,6,,,,
{16}3h[4:1],,,4h[16:1],,,7h[4:1],,,8h[16:1],,,81,,72,,1-4[8:1]/8,,,,
{8}1b,,
