&title=Axium Crisis
&artist=ak+q
&first=0
&des=夜桜+鳩
&wholebpm=170
&clock_count=4
&des_5=夜桜+鳩
&lv_5=12+
&inote_5=(170)
{1},
{1}6q3[4:3],4q5[4:3],8<4[4:3],1p3[4:3],7>2[4:3],
{2}4>2[4:1],8<6[4:1],3qq8[4:5],,
{4}4q8[4:1],,,,
{8}6q3[4:1],,,,
{6}1,2/4,3/5,
{4}4v7[8:1]/6,,5v2[8:1],,
{16}4/8,,,,7,5,6,4,
{6}5h[6:1],4h[6:1],3h[6:1],2-6[8:1],,,7-3[8:1],,,
{8}1pp4[4:3],,,,
{6}5,6,7,
{2}8v3[8:1],1v6[8:1],
{4}7<3[4:1],3>7[4:1],7,3,1<5[4:1],5>1[4:1],1,8w4[8:1],8pp6[4:4],
,,,,,
{8}2h[8:1],4h[8:1],3h[8:1],5h[8:1],4qq8[4:2],,,,,7<4[4:1],,,2qq6[4:3],,,,,,,,7>7[4:5],,,,,,,,,,1,2,3,4,5,6,7V51[8:3],,,,2V84[8:3],,,,6<5[4:2],,,3h[8:3],,,,,
2h[8:3],4,5,6,3h[8:3],4,5,6,2h[8:3],4,5,6,3h[8:3],4,5,6,7h[8:3],5,4,3,6h[8:3],5,4,3,7h[8:3],5,4,3,6h[8:3],5,4,3,
{16}2,6,2,6,3,7,3,7,4,8,4,8,3,7,3,7,
2,6,2,6,1,5,1,5,2,6,2,6,3,7,3,7,
4,3,2,1,7,6,5,4,8,1,2,3,6,7,8,1,
{32}4b,5,6,7,8,1,2,3,4,5,6,7,8,1,2,3,4,5,6,7,8,1,2,3,4h[8:1]/8h[8:1],,,,,,,,
{16}4/7,,6,5,6,,2/5,,3,4,3,,6/1,,7,8,7,,8/3,,2,1,2,,3-8[8:1]/7-4[8:1],,,,3/7,,,,
2/5,,3,4,2,,1/6,,7,8,6,,1/5,,2,1,3,,7/4,,6,5,7,,8-5[8:1]/4-1[8:1],,7/3,,8/4,,,,
{16}3h[4:1]/4,5,6,7,8,,8h[4:1]/1,2,3,4,5,,6h[4:1]/5,4,3,2,1,,1h[4:1]/8,7,6,5,4,,3-1[8:1]*-7[8:1],,,,3b,,,,
{16}6h[4:1]/5,4,3,2,1,,1h[4:1]/8,7,6,5,4,,3h[4:1]/4,5,6,7,8,,8h[4:1]/1,2,3,4,5,,6-2[8:1]/5-1[8:1],,7/4,,5b/6b,,,,
{16}3,4,2,4,1,,6,5,7,5,8,,2,1,3,1,4,,7,8,6,8,5,,
{4}1-5[8:1],,1-6[8:1]*-4[8:1],,5bw1[2:1],,,,
{8}7/4,6,5/2,3,4/6h[8:2],
{16}7,8,1,2,3,4,
{8}8,5/7,4/6,3/5,2h[4:1]/4,
{16}1,8,7,6,5,4,
{8}1V37[4:1],1,7,6,5V73[4:1],5,3,2,
{16}1h[8:1],,5,6,7,1,2,3,8-4[8:1],,3<6[8:1],,8,,3,,
{16}8h[8:1],,4,3,2,8,7,6,1-5[8:1],,6>3[8:1],,1,,6,,
{16}2h[4:1],,6,7,8,1,8,7,6h[4:1],,
{16}2,3,4,5,4,3,
{8}7-4[8:1]/2,8,2-5[8:1],1,6-1[8:1],7,3-8[8:1],2,
7V51[4:1],7,4,3,2V84[4:1],2,8,7,
6<1[8:1],5,4,3,2>5[8:1],1,8,7,
6V48[4:1],6,1,2,3V51[4:1],3,8,7,
6-1[8:1],7,2-5[8:1],3,7-4[8:1],6,3,2,
{16}5,6,1,2,6,7,2,3,7-3[8:1],,,,3b/7b,,,,
{4}6b/2b,
{32}1/5,2,3,4,5,6,7,8,
{4}1>4[8:1],1b<6[8:1],1b,
{32}4,5,6,7,8,1,2,3,
{4}4w8[8:1],4b,
{16}2,3,4,5,
(160)
{16}7,6,5,4,
(156)
{16}1,2,3,4,
(152)
{16}8,7,6,5,
(148)
{16}2,4,2,4,
(144)
{16}3,5,3,5,
(140)
{16}4,6,2,8,
(136)
{16}1,7,3,5,
(131.8)
{1}4bw8[1:1],,
(170)
{8}3,4,5,6,,,,,7,6,5,4,3,,,,2,3,4,5,6,,,,8,7,6,5,4,,,,2h[8:4],1,8,7,6,,,,5h[2:1],4,3,2,1,,,,8,2,7,3,6h[2:1],,,,5,6,4q4[4:1],5,3,,,,
{8}2/5,4,3,4/7,5,6,4/2,,1/5,2,3,4/8,7,6,1/5,,2/5,2/5,3,4/7,4/7,6,5,,2/4,
{16}3,3,3,,5/7,,6,6,6,,1,8,1,8,
{8}2pp5[2:1],2,1,1,8,8,7,,7qq4[2:1],7,8,8,1,1,2,,3qq8[2:1],3,4,4,5,5,6,,5-1[2:1],,,,5b,,,,
{8}2-5[8:1],7-4[8:1],2,7,1h[8:2],,,
{16}2<5[8:3]/6,7/3,8h[4:2]/4,,,,,,,,
{8},,3/7,2/6,1h[8:3]/5,,,7h[8:1],8h[8:1],1h[8:1],2h[8:1],3h[8:1],4h[8:3],,,5,5h[8:3],,,
{16}2>8[8:3],3,4h[4:1],,,,,,,,
{8},1,2,3,3h[8:3],,,7,7h[8:1],1h[8:1],6h[8:1],2h[8:1],5h[8:1],4h[8:1],3h[8:1],2h[8:1],1h[8:1],8h[8:1],7h[8:1],6h[8:1],5h[8:3],,,
{16}2>8[8:3],3,4h[4:1],,,,,,,,
{8}1<6[8:1],1,2,3,4>1[8:1],4,5,6,
{16}7-3[8:1],,8,,7,,8,1,2>5[8:1],,5-1[8:1],,2,,8,,
{8}7qq4[8:3],,,4,3,2,1,8,7bp3[8:1],7,2>5[8:1],2,8b-4[8:1],,
{16}8,,1,2,
{8}3-7[8:1],7V14[4:1],3,6,5>2[8:1],5,6,7,8-4[8:1],4V68[4:1],8,3,2>5[8:1],2,7,6,
{16}3,2,1,8,5,6,7,8,2,3,4,5,8,7,6,5,
{24}2,3,4,8,7,6,1,2,3,7,6,5,
{32}1,2,3,4,5,6,7,8,1/6,5,4,3,2,1,8,7,
{1}2b-6[8:26]/6,
{16},,,,,,5h[16:1],,1,,,1,,,1,,
{1},,7-3[8:26],
{16},,,,,,4h[16:1],,8,,,8,,,8,,
{1},
{8},,,,1b,,,,,
E
