&title=終焉から命を救う
&artist=MIssionary
&first=-1.2
&lv_5=14+
&des=THAC
&inote_5=
(182){4},{1},{4},,,{32}1bV73V15V37V51[4:29],
2/8,3/7,4/6,{8}5,{4},,,{8},C,
{1},{4}C,
,,,{8},C,
{1},{2}C,
{4},,{8},C,{1},{4}C,
{2},Ch[4:1],
{8}8x/1x,7,6/4,3,2/1,3,4/5,6,
1/7-3[8:1],7,4-1[8:1],4,6-2[8:1],6,{4}3,
{8}8/1,2,3/5,6,7/8,6,5/4,3,
8/2-6[8:1],2,5-8[8:1],5,3-7[8:1],3,{4}6,
{8}8/6-2[8:1],8,8/6,8,1/3V52[4:1],1,1/3,1,
8,8/1-5[8:1],8,8/1,8w4[8:1],8,{4}8,
{8}2q6[8:1],2,1,8,7p3[8:1],7,8,1,
{16}2,4,2,4,2,4,2,4,2,5,2,6,2,7,2,8,
{8}2b-5[8:1],2,6-1[8:1],6,3-8[8:1],3,4-7[8:1],4,
5-2[8:1],5,1-6[8:1],1,3-6[8:1],3-8[8:1],{4},{8}7-4[8:1],
7,3-8[8:1],3,6-1[8:1],6,5-2[8:1],5,
4-7[8:1],4,8-3[8:1],8,6-3[8:1],6-1[8:1],{4},{8}2b-5[8:1],
3,6-1[8:1],7,3-8[8:1],2,4-7[8:1],5,
5-2[8:1],6,1-6[8:1],8,3-6[8:1],3-8[8:1],3x,3x,
7-4[8:1],6x,3-8[8:1],2,6-1[8:1],7,5,4,
3b,{24}7,6,5,{8}3/4pp1[8:3],2>5[4:1],{2}2,
{8}7/8h[8:5],7,7,7,7,7,7/5h[8:1],7,
7/1h[8:1],7,7/4h[8:1],7,7/3h[8:1],7,7/2h[8:1],7,
7/1>5qq2[8:5],7,7,7,7,7,7,7,
7/8b-4[8:1],8,5-1[8:1],5,3-7[8:1],3,{4}6b,
{8}2/1h[8:3],2,2,2,2/3h[8:1],2,2/4h[8:1],2,
2/8h[8:1],2,{16}2/7,6,{8}2/5h[8:1],2,{16}2/8,7,{8}2/6h[8:1],2,
8b/1b,7/3,2/6,5/1,4/8,5/1,2/6,3/7,
{16}8,4,7,3,6,2,5,1,6,4,7,1,4,3,6,8,
{32}7b,B7,Cf,B3,{8}A3,{4},,,{8},5q7>4[8:9],
{1},{4}6pp4>7[8:9],
,,,{16},4p2<5[16:19],
{1},{8},{2}2p8<3[8:9],
{4},,{8},8pp7>4[8:9],{1},{4}6q5>7[8:7],
{1},{16}3,
4,{8}3,{16}6,5,{8}6,{16}2,4,{8}3,{16}7,5,{8}6,
{16}2,1,{8}2,{16}7,8,{8}7,{16}3,1,{8}2,{16}6,8,{8}7,
2-4[8:1],6,2,5<7[4:1],,7>1[4:1],,1>3[4:1],
,3<5[4:1],,5<8[4:1]*q2[4:1],{2},{8}3-5[8:1],
3,5,6,7p3[8:1]*q3[8:1],6/8,{4},{8}6-4[8:1],
6,4,3,2q6[8:1]*p6[8:1],3/1,{4},{8}1x/2x,
4/3,6/5,7/8,{16}1x,2,3,4,5x,6,7,8,
1x,1,1,1,1,1,1,1,1b,1b,1b,1b,1b,1b,1b,1b,
{4}1-6V83-7b[16:9],{2},{4}Cf,
1b/2b-5b[8:1],{8}2b,6b-1b[8:1],,4b-7b[8:1],,2b-5b[8:1],
,8b-3b[8:1],,6b-2b[8:1],,6b,,1b/5b,
7b/3b,{24}2,3,4,{8}5/6,8-6[8:1],1,8-4[8:1],2,8-6[8:1]*-2[8:1],
,8V63[4:1]*V25[4:1],,8,{4},{16}1,2,3,4,
{8}5b/6b,{24}7,6,5,{8}4/3,2/1<6[8:1],8,1/2>5[8:1],3,1/2,
{4}1h[4:1],3h[4:1],5h[4:1],7h[4:1],
{8}8b,8,7/1,1/7,{16}2,6,2,6,2,6,2,6,
{8}2b,{24}1x,2,3,{8}4/5,{24}7x,6,5,{8}4/3,7/8,{4}6b/1b,
{8}3/4,{24}7,6,5,{8}4/1,2/8,7-3[8:1],1-5[8:1],7,1-4[8:1]*>4[8:1],
,1-6[8:1]*<6[8:1],,1w5[8:1],,1,,3/7,
2/6-1[8:1],{24}1,2,3,{8}4/6,5<7[8:1]*>3[8:1],,5-1[8:1],,5b,
,8/2,3/7,6/4>1[8:1],,{24}8,7,6,{4}5b,
{8}7/8,6,5/4h[8:1],5,3/6h[8:1],3,2/7,1/8,
7-3[8:1],8,7,2-6[8:1],1,2,{4}8b,
{8}7/1,6/5,2/8-5[8:1],3/4-1[8:1],8-3[8:1],4-7[8:1],{4},{16}8,
8,8,8,8,8,8,8,8b,8b,8b,8b,8b,8b,8b,8b,
{8}8b-4[8:1],8,7-3[8:1],7,6-2[8:1],6,5,5>1[8:1],
,5<1[8:1],,5-1b[8:1],,5,,2/8,
{16}7/1,6,5,4,1,2,3,4,1,8,7,6,2,3,4,5,
{8}7-3[8:1],7,4-1[8:1],4,5-8[8:1]*-2[8:1],5,{4}5b,
{8}1b-5[8:1],1,2-6[8:1],2,3-7[8:1],3,4,4<8[8:1],
,4>8[8:1],,4-8b[8:1],,4,,7/1,
{16}2/8,3,4,5,8,7,6,5,8,1,2,3,7,6,5,4,
{8}2-6[8:1],2,5-8[8:1],5,4w8[8:1],4,{4}4b,
{16}5b,3,7,1,6b,4,8,2,7b,5,6,1,3b,2,7b,8,
6,1,4b,3,8,2,7b,3,5,4,8b,2,4,3,7b,8,
{8}7b,{24}2,3,4,{8}5/6,2,2b,{24}7,6,5,{8}4/3,7,
{24}1,2,3,7,6,5,2,3,4,8,7,6,{32}1,2,3,4,5,6,7,8,{4}1b/5b,
{16}4b,6,2,8,3b,5,1,7,2b,4,3,8,6b,7,2b,1,
3,8,5b,6,1,7,2b,6,4,5,1b,7,5,6,2b,1,
{8}2b,{24}7,6,5,{8}4/3,7,7b,{24}2,3,4,{8}5/6,2,
{24}8b,7,6,2b,3,4,7b,6,5,1b,2,3,{32}8b,7,6,5,4,3,2,1,8b/4b,5,6,7,8,1,2,3,
{1}4qq2qq8qq6qq4[4:15],
{8},C,{1},{4}C,
,,,{8},C,
