&title=Iなんです
&artist=25時、ナイトコードで。
&first=0
&des=B(@A@)D
&clock_count=4
&lv_5=13+
&inote_5=(185){1},,
{16}8/1-5[8:1],,,,1/7,,,,6V48[16:3],,,4,,,2h[4:1],,
,,1,,3/8,,4/7,,6,5,6,5,7,,7h[4:1],,
,,8,,1/6,,2/5,,3,4,3,4,2,,2h[4:1],,
{8},8,3/7,4/6,5-1[8:1],,8b,,
{4}7/2-5[8:1],7,7/4-1[8:1],7,
7/8-3[8:1],7,7/2v5[8:1],7,
6/3v8[8:1],6,6/1-4[8:1],6,
{8}3/5,3/5,2/6,2/6,1/7,1/7,2/8,2h[8:7]/8h[8:7],
{1},
{16}1-5[8:1]/2,,,,1/8,,,,7p4[16:5],,,3,,,1h[4:1],,
,,,,2/5,,6,,3/7,4,5p5[4:1],6,7,8,1h[4:1],,
,,,,3/4,,2,,1/8,,7V15[16:3],5,6,,7/3h[4:1],,
,,,,6/4,,3,,2/1,8,7,6,5/4,3,2,1,
8-4[8:1]/7,,,,8/1,,,,2q5[16:5],,,6,,,8h[4:1],,
,,,,7/4,,3,,6/2,5,4q5[4:1],3,2,1,8h[4:1],,
,,,,4/6,,3,,1/2,,8w4[8:1],1,7,,8,,
{8},2pp5[8:3]/6pp1[8:3],2/6,,,,,,
{8}3h[2:1],,1,,4,4h[8:3],8,,
5h[8:3],,7,6-2[8:1],,1,1,,
{16}3,3,5,5,4,4,6,6,2q5[4:1],,7,7h[16:3],,,,,
{8}7>2[8:1],6,5,4<7[8:1],3,2,1,,
{8}6h[2:1],,8,,5,5h[8:3],1,,
4h[8:3],,2,3-7[8:1],,8,8,,
{16}6,6,4,4,5,5,3,3,7,,8,,1-6[8:1],,2,,
{4}1b/3-8[8:1],3b/5-2[8:1],5b/7-4[8:1],7b/1,
{12}2,,3,3/4,,5,4/6v8[8:1],,,
1,,2,1/2,,8,7v5[8:1]/1,,,
4,,3,2/4,,6,5/7,,1/8,
2z6[4:1]/7s3[4:1],,,,,,,,,
{4}5/4>1[4:1],6,7,
1/8<5[4:1],2,3,
{12}4qq5[4:1]/5,,6,6,,7,7,,,
8qq6[4:1]/4qq2[4:1],,,,,,,,,
{4}7qq1[8:3],1,2,
3qq5[8:3],5,6,7-2[8:1],
{8}7/3,4-1[8:1],,4/8,7-4[8:1],,
1/7,2-5[8:1],,2/6-2[8:1],,3<1[2:1],
3h[4:3],,,,,,,,
{16}1,2,3,4,5-1[8:1],6,7,8,1w5[8:1],,,,,,,,
{16}3-8[8:1]/7-4[8:1],,,,3/7,,,,2V48[16:3],,,5,,,7h[4:1],,
,,8,,1/6,,2/5,,3-6[8:1],4,2,4,3,,7h[4:1],,
,,5,,4/6,,3/5,,2<7[8:1],4,3,4,2,,6h[4:1],,
{8},4,3/5,2/6,1-4[8:1]/7-4[8:1],,1/7,,
{16}6-1[8:1]/2-5[8:1],,,,6/2,,,,7V51[16:3],,,4,,,2h[4:1],,
,,1,,8/3,,7/4,,6<1[8:1],5,7,5,6,,2h[4:1],,
{8},4,3/5,4/6,5-1[8:1]/7-4[8:1],,5/7,,
2>5[16:3],4<7[16:3],6<1[16:3],8>3[16:3],,5-1[8:1],,5>6[8:5]*<4[8:5],
{8},5b,,,,,,,
{16}7h[8:1],,3,,7h[8:1],,2,,7v4[8:1],,1,1,7,,2,,
3h[8:1],,5,,3h[8:1],,6,,3v8[8:1],,7,7,3,,6,,
{8}5v8[8:1],1,5/2h[4:1],,1v4[8:1],8,1/7,6,
{16}2<7[8:1],,5,,2>5[8:1],,6,,2-6[8:1],,7,7,2,,8,,
8>3[8:1],,5,,8<5[8:1],,4,,8-4[8:1],,3,3,8,,2,,
1-3[8:1],,8,,1-5[8:1],7,,,6/1-4[8:1],,,7,1,,8,,
7-5[8:1],,1,,7-3[8:1],2,,,1/7-4[8:1],,,8,7,,1,,
{1}2z6[2:1],
5s1[2:1],
3q2[2:1],
{4}8>7[2:1],,,2,
6/3-8[8:1],6,6/1-4[8:1],6,
6/5-2[8:1],6,6/3v8[8:1],6,
7/2v5[8:1],7,7/4-1[8:1],7,
8>3[4:1],3-7[4:1],7<4[4:1],4w8[16:5],
{16},,,,,,,,1/7,,,4/5,,,2/8,,
{16}3-8[8:1]/7-4[8:1],,,,3b/7b,,,,2V48[16:3],,,5,,,7h[4:1],,
,,8,,1/6,,2/5,,3-6[8:1],4,2,4,3,,7h[4:1],,
{8},5,6/4-8[8:1],3,4/6-1[8:1],7,6/2,3h[4:1],
,1-5[8:1],7-3[8:1],1,7>2[8:1]*<4[8:1],,,,
{16}3-8[8:1]*-6[8:1],,,,3,,,,7V51[16:3],,,4,,,2h[4:1],,
,,1,,8/3,,7/4,,6<1[8:1],5,7,5,6,,2h[4:1],,
{8},4,3/5,4/6,5-1[8:1]/7-3[8:1],,5/7,,
2-5[8:1],5V38[4:1],2,6pp6[4:1],,6qq6[4:1],,,
{16}8b-4[8:1],,,,1/8,,,,2q5[16:5],,,6,,,8h[4:1],,
,,,,7/4,,3,,6/2,5,4q4[4:1],3,2,1,8h[4:1],,
,,,,6/5,,7,,8/1,,2V84[16:3],4,3,,2/6h[4:1],,
,,,,3/5,,6,,7/8,1,2,3,4/5,6,7,8,
1-5[8:1]/2,,,,1/8,,,,7p4[16:5],,,3,,,1h[4:1],,
,,,,2/5,,6,,3/7,4,5p4[4:1],6,7,8,1h[4:1],,
,,,,5/3,,6,,8/7,,1w5[8:1],8,2,,1,,
{16},,8,7,1,2,8,7,2,3,7,6,3,4,6,5,
1b-5[8:1],,,,1b/7-3[8:1],,,,7b/2-6[16:1],,,2b/8-3[16:1]*-5[16:1],,,8b,,
{1},,
E
