&title=ロストエンファウンド
&artist=sasakure.UK / Leo/need x 初音ミク
&first=0.03
&des=龙
&lv_3=18
&inote_3=(92){4},,,,
{16}3h[16:7],,,,,,,,
,,,,,5,4,5,
4h[16:11],,,,,,,,
,,,,,,5,4,
,5,4,6,3,6,4,5h[16:5],
,,,,,,4,5,
4h[4:3],,,,,,,,
,,,,,,,,
6h[8:5],,,,,,,,
,,,,,4,5,4,
5h[4:3],,,,,,,,
,,,,,,4,5h[8:1],
,,4,5,3h[2:1],,,,
,,,,,6h[16:14],,,
,,,,,,,,
,,,,,,,,
3h[8:5],,,,,,,,
,,,,,5,4,5,
4h[4:3],,,,,,,,
,,,,,,5,4h[8:1],
,,5,4,6h[16:3],,,,
,,4,5,4,5,4h[8:1],,
,,,,,5b,4b,5bx`B5/E6,
,,,,,,,,
(184){8}
3bx`B3/E3,,6bx`B6/E7,,4,5h[4:1],,B5/E6,
,4x`B4,,6,4,5,3,5bx`B5/E6,
,4,6x`B6,,5,3h[4:1],,B3/E3,
,5,4x`B4,,6,4,5,3bx`B3/E3,
,5,4,6,3,5,4,6,
,4,5h[4:1],,,4,6,3,
5x`B5,,4,6x`B6,,4,6h[2:1],,
,,B6,,,3,4,5bx`B5/E6,
,4,6x`B6,,3,5,4,6bx`B6/E7,
,4,5x`B5,,6,4,5,3bx`B3/E3,
,5,4x`B4,,6,3h[4:1],,B3/E3,,
5,4x`B4,,6,3,4,5bx`B5/E6,
,4,5,,3,6,4,5,
3,6,4,5h[4:1],,B5,,,
4b,6h[8:3],,,,,4,5,
4,5,3h[4:1],,,,5,4,
5,4,6h[4:1],,,4,5,4bh[8:8],
,,,,,,,,
,5h[8:13],,,,,,,
,,,,,,,,
4,5,3,4,5,6bh[8:6],,,
,,,,4b,5b,,3h[8:9],
,,,,,,,,
6h[8:8],,,,,,,,
4h[8:4],,,,5h[8:4],,,,
4h[8:7],,,,,,,B4,
,6h[8:10],,,,,,,
,,,,4,5,
3b,6,3,6,3,6,
4b,,5,,6,4,
5b,3h[8:2],,,5,4,
,,6,4,
5b,3h[8:2],,,5,4,
6,3,5,4x`B4,,5,
4x`B4,,5,3,5,4,
6,,3h[8:9],,
,,,,,,
,,,6h[8:9],,
,,,,,,
,,,3h[8:7],,,
,,,,,,
5h[8:2],,,,4h[8:10],,
,,,,,,
,,,,5,4,
6b,3,6,3,6,3,
5,4h[8:3],,,,5,
4h[8:2],,,5,4,5,
,,3,5,
4b,6,4,5,3,6h[8:2],
,,4,5,6,4,
5h[8:2],,,4,5,4,
,,6h[8:9],,
,,,,,,
,,3h[8:10],,,
,,,,,,
,,,6h[8:7],,,
,,,,,,
4h[8:2],,,,5h[8:10],,
,,,,,,
,,,,4,,
6h[8:4],,,,,,
3h[8:4],,,,,,
3/6,,5h[8:3],,,,,4h[8:3],
,,,5,4,5,4,5h[8:3],
,,,,4,5,4,6h[8:3],
,,,,,4,5,3h[8:3],
,,,5,4,5,4,6h[8:2],
,,,4,6,4,6,4,
,,,5,3,5,3,5h[8:2],
,B5,,,4,5h[8:2],,B5f/E6,
,4b,3b/6b,,5,4h[8:2],,B4f/E4,
,5b,3b/6b,,3,5,4,6bx`B6f/E7,
,4,5,3,6,4,5,3bx`B3f/E3,
,5,4,6,3,,5,4bx`B4f/E4,
,6,3,5,4,6,3,5bx`B5f/E6,
,3,6,4,5,3bx`B3f/E3,,6,
4b,5,3,5,4,6,3bh[8:2],,
,5,4,6b,4,6,3b,5,
3,6b,4,6,3,5,4,6h[8:6],
,,,,,,,4,
5,4,5,4,5,4,5b,4,
6,4b,5,3,5b,4,6,4b,
5,3,5b,4,6,3,5,3h[8:6],
,,,,,,6,4,
5,3,6b,3,5,3b,6,4,
6b,3,5,3b,6,4,6b,3,
4,3,6,5,6,4,5,3h[8:3],
,,,,6h[8:8],,,,
,,,,B6,,,,
3h[8:4],,,,B3,,,,
6h[8:14],,,,,,,,
,,,,,,,,
3,,6,,4,5,,3,
,5,,4,,6,4h[8:16],,
,,,,,,,,
,,,,,,,,
6,,3,,4,5,,3,
,6,,4,,5,4,,E
