&title=Got hive of Ra
&artist=E.G.G.
&first=0
&des=rbhd
&clock_count=4
&lv_5=14
&inote_5=(268){2},,,
{4}4/5h[4:5],,6,6,6,6h[4:5],,5,5,5,{8}5,6,5,4,
{4}5/4h[4:5],,3,3,3,3h[4:5],,4,4,4,{8}4,3,4,5,
4-1[8:1]/5b,,8,,6,4,5,4-1[8:1],,8,8,,6,6,4-1[8:1],,8,8,,6,4,4,5,,
5-8[8:1]/4b,,1,,3,5,4,5-8[8:1],,1,1,,3,3,5-8[8:1],,1,,3,3,,5,5,4,
3-6[8:1]/6,,7-2[8:1],,3-6[8:1],,8,8-5[8:1],,4-1[8:1],,8-5[8:1],
,3-6[8:1],3,3,8-5[8:1],,4-1[8:1],,,6-3[8:1],6,,
2-7[8:1],2,2,,8-5[8:1],,4-1[8:1],,,6-3[8:1],,2,
2-7[8:1],,,8-5[8:1],,4-1[8:1],,6-3[8:1],6,2-7[8:1],2,8,
8^5[8:9],,4,,2,,3,3,,1,1,
8^3[8:9],,,4,,7,,,6,6,6,
5^8[8:9],,4,,3,,2,,3,3,,
1^4[8:9],1,,,,8,,7,,,6,,6,5,4,
5-8[8:1],,4-1[8:1],,7-2[8:1],,3-6[8:1],,7,7-2[8:1],,1-4[8:1],
,5,5-8[8:1],,,2-7[8:1],,6-3[8:1],,1,1-4[8:1],,
7-2[8:1],,3-6[8:1],,5-8[8:1],,1,1-4[8:1],,7,7-2[8:1],,
3-6[8:1],3,8,8-5[8:1],,4-1[8:1],,,8,8,8-4[4:5],,
{2}1b,,,{8}2,5,4,6,1-5[8:1],,1,,
8,4,7,3,6,2,5,1,4,,2,4,3,5,4,,6,5,,8,1,8,1,,
2,5,3,6,4,7,5,,6,1,7,2,8,3,1,,4,5,,6,,7,8,,1,,2,3,,
4,8,3,7,2,6,1,5,,1,7,2,8,,3,,5,,7,1,8,2,,5,3,6,2,7,,
8b,4,7,3,6,2,5,1,4,,2,4,3,5,4,,6,5,,8,1,8,1,,
2,5,3,6,4,7,5,,6,1,7,2,8,3,1,,4,5,,6,,7,8,,1,,2,3,,
4,8,3,7,2,6,1,5,,1,7,2,8,,3,,5,,7,1,8,2,,5,3,6,2,7,,
1,,1,8,,6/7,,4/5,,2/3,,1/8,,5/6,,
8,,8,1,,3/2,,5/4,,7/6,,8/1,,4/3,,
2,,2,1,,7/8,,5/6,,3/4,,1/2,,5/6,,
6,5,6,1,,1,,1,6,5,6,3,4,3,8,,{12}6,4,5,{4}1,
{5}8h[5:1],7h[5:1],6h[5:1],5h[5:1],4h[5:1],3h[5:1],1^6[20:9],,2-5[20:3],,
8h[5:1],1h[5:1],2h[5:1],3h[5:1],4h[5:1],5h[5:1],7^2[20:9],,6-3[20:3],,
7h[5:1],6h[5:1],5h[5:1],4h[5:1],3h[5:1],2h[5:1],8^5[20:9],,4-8[20:3],,
{8}6,1,,1,{16}7,8,7,,2,1,2,,{8}8,5,5,7,4,4,6,6,{16}3,4,{8}3,1/2,,
{4}3b/8^5[4:1],5^2[4:1],3,1-6[4:1],6-3[4:1],3-8[4:1],8^5[8:1],6h[4:1],
4h[4:1],3h[4:1],2h[4:1],1-6[4:1],{8},{4}3^8[4:1],,7,{8}7,{4}8,{8},8,
{4}6^1[4:1],1^4[4:1],4^7[4:1],7^2[2:1],1h[8:5],,{8},
3h[8:3],,,2,,2,4,,4,3,5,1,8,5,6,2,8h[8:3],6,,
5,7,4,6,3,5,2h[4:1],,4,1,5,2,6h[4:1],,8,5,1,6,2,7,
3-8[8:1],,7-4[8:1],,3-8[8:1],,6,6-1[8:1],,2-5[8:1],,6-1[8:1],
,3-8[8:1],3,3,7-4[8:1],,3-8[8:1],,,7-4[8:1],7,,
2-5[8:1],2,2,,8-3[8:1],,4-7[8:1],,,6-1[8:1],,2,
2-5[8:1],,,8-3[8:1],,4-7[8:1],,6-1[8:1],6,2-5[8:1],2,8,
8^5[8:9],,4,,2,,3,3,,1,1,
8^3[8:9],,,4,,7,,,6,6,6,
5^8[8:9],,4,,3,,2,,3,3,,
1^4[8:9],1,,,,8,,7,,,6,,6,5,4,
5-2[8:1],,4-7[8:1],,8-3[8:1],,4-7[8:1],,6,6-1[8:1],,2-5[8:1],
,6,6-1[8:1],,,3-8[8:1],,7-4[8:1],,1,1-6[8:1],,
7-4[8:1],,3-8[8:1],,5-2[8:1],,1,1-6[8:1],,7,7-4[8:1],,
3-8[8:1],3,7,7-4[8:1],,1-6[8:1],,,8,8,8,,3/6,3/6,3/6,,
{5}1h[5:1],5h[5:1],3h[5:1],7h[5:1],5h[5:1],1h[5:1],7h[5:1],3h[5:1],1h[5:1],5,{8},,
2,6,3,7,4,8,5,7,4,,6,4,5,3,6,,7,8,,2,1,3,8,,
4,7,3,6,2,5,1,4,8,5,1,6,2,7,3,,8,1,,2,,3,4,,5,,6,7,,
5,1,6,2,7,3,8,4,,6,3,5,2,,1,,7,,5,3,4,2,3,1,4,2,5,3,,
2b,6,3,7,4,8,5,7,4,,6,4,5,3,6,,7,8,,2,1,3,8,,
4,7,3,6,2,5,1,4,8,5,1,6,2,7,3,,8,1,,2,,3,4,,5,,6,7,,
5,1,6,2,7,3,8,4,,6,3,5,2,,1,,7,,5,3,4,2,3,1,4,2,5,3,,
4/6,,6,5,,3/4,,6/7,,2/3,,1/8,,
3/5,,3,4,,6/5,,3/2,,7/6,,8/1,,
{5}3h[5:2]/6,,4h[5:1],5h[5:1],6h[5:1],{6}8,8,8,
{5}1/7h[5:2],,6h[5:1],5h[5:1],4h[5:1],{6}1,1,1,
{5}8/3h[5:2],,5h[5:1],6h[5:1],8h[5:1],{6}1,1,1/8,
{8},3/4,,5/6,,7/8,,1/2,3,4,3,4,1-4[8:1]/5-8[8:1],,,,
{1}2^7[2:9]/6^3[2:9],
