&title=レグルス αβ
&artist=Xceon
&first=1.42
&des=dyliu
&lv_5=14
&inote_5=(168){4
},,,,6h[8:7],
5,4,{8}3,3x>6[4:3],
{2},7xh[8:11],
{4},4,3,{8}2,2xqq5[4:3],
{2},6xh[8:11],
{4},1,7,{8}5>1[8:3],4xh[2:1],
{2},{8}7,6,4,3h[1:1],
{4},8,2,{8}4<8[8:3],5xh[8:3],
{2},{8}3,4,6,5,
{4}2b<7[4:1],7p3[4:1],{2}3p5[4:1],
{4}7x>2[4:1],2q6[4:1],{2}6q4[4:1],
{4}3x>7[4:1],7q5[4:1],{2}5p4[4:1],
{4}6x<2[4:1],2p4[4:1],{2}4q5[4:1],
{4}1b,{16}A3,E4,E5,A5,A1,B1,C,B5,A7,E7,E6,A5,
{4},{16}A1,E2,E3,A3,A7,B7,C,B3,A5,E5,E4,A3,
{4}7b,{16}1,2,3,4,8,7,6,5,1,2,3,4,
{32}8b,7,6,5,4,3,2,1,{4}8x/Cf,{16}6,5,6,5,6,5,6,5,
{4}6-8-2[2:1],1,2,3,
4-6-8[2:1],7,8,1,
2-4-6[2:1],5,6,7,
8-2-4[2:1],3,4,{8}6,8,
{4}2x-5[8:1]*-6[8:1],2,7x-3[8:1]*-4[8:1],7,
1xv4[8:1]*v6[8:1],1,8xv5[8:1]*v3[8:1],8,
1x-3[8:1]*-7[8:1],1-5b[8:1],1xw5[8:1],1b,
{16}1,8/2,7/3,6/4,{4}5x,{16}3,4,3,4,{8}3,{16}6,5,
{8}6h[8:7],7x,{16},2,{8},{16}5,{8},{16}8,{8},4,
3h[8:7],2x,{16},7,{8},{16}1,{8},{16}4,{8},6,
7h[16:5],1,{16},2,{8},{16}4/6-1[8:1],{8},{16}5,{8}6,4,
3h[16:5],5,{16},6,{8},{16}8/2-5[8:1],{8},{16}1,{8}2,8,
8-4[8:1],5,{16}8-6[8:1],2,{8},{16}3/8-4[8:1],{8},{16}5,{8}8,2,
1-5[8:1],5,{16}1-3[8:1],8,{8},{16}1-5[8:1],{8},{16}4,{8}1,6,
1/7b,1,1/5,1,8/2b,8,8/4,8,
{16}1,7,1,7,2,7,2,7,3,7,3,7,{32}4,5,6,7,8,1,2,3,
{4}4x-6[8:1]*-8[8:1],4,{16}2/7-3[8:1],{8},{16}1,{8}7,1,
{4}5x-3[8:1]*-1[8:1],5,{16}7/2-6[8:1],{8},{16}8,{8}2,8,
{4}7x-4[8:1]/4x-1[8:1],4/7-2[8:1],{16}7-4[8:1],{8},{16}4,{8}7,1,
{4}2x-5[8:1]/5x-8[8:1],5/2-7[8:1],{16}2-5[8:1],{8},{16}5,{8}2,8,
{4}3x-8[8:1]/7x-4[8:1],3b/7b-2[8:1],{16}7-4[8:1],{8},{16}4,{8}7,1,
{4}6x-1[8:1]/2x-5[8:1],6b/2b-7[8:1],{16}2-5[8:1],{8},{16}5,{8}2,1,
3x/8x>3[8:1],7,{16}8<5[8:1],6,{8},{16}4x/8x-4[8:1],{8},{16}1,{8}8,2,
6x/1x<6[8:1],2,{16}1>4[8:1],3,{8},{16}5x/1x-5[8:1],{8},{16}8,{8}1,7,
{16}6,4,6,4,6,4,6,4,5,3,5,3,5,3,5,3,
1,2,1,2,8,1,8,1,{32}7,6x,5x,4x,8,7x,6x,5x,1,8x,7x,6x,2,1x,8x,7x,
{1}6bxh[2:1]/2bh[2:1],
{2}2>5[4:1],{4}6h[4:1],{8}2,1h[2:1],
,,,7,8,7,6,7,
{4}8h[4:1],2h[4:1],4h[4:1],5h[4:1],
{8}6h[8:3],{4},{16}7,8,{2}1-5b[8:1],
{4}7<4[8:1],A8/E8/D8,2>5[8:1],A1/E2/D2,
7>2[8:1],A6/E7/D7,4>1[8:1],A5/E5/D5,
8-6b[8:1]*-5[8:1],8-3[8:1]*-2b[8:1],8w4b[8:1],8,
{8}1,2,3/7,6,{32}1b/5x,2,3,4,5,6,7,8,1,2,3,4,5,6,7,8,
{4}Cf/1xv6[8:1],{8}1/7<4[8:1],8,7/3v6[8:1],2,1qq1[4:1],1,
B5/B4/E5/1>6[4:1],{4},{8}7,{4}7-2[8:1],7/6x,
8xv3[8:1],{8}8/2>
5[8:1],1,2/6v3[8:1],7,8pp8[4:1],8,
B4/E5/B5/8<3[4:1],{4},{8}2,{4}2-7[8:1],2/3x,
4xv7[8:1],{8}4/6<1[8:1],5,6/2v7[8:1],3,4pp4[4:1],4,
E1/B8/B1/4>7[4:1],{4},{8}6,{4}6,{8}4-1[8:1],3,
{4}4/2<6[4:1],6<2[4:1],2,{8}5-8[8:1],6,
{4}5/7>3[4:1],3>7[4:1],7,{8}4-8[8:1],3,
{4}4/Cf/2<6b[4:1],6>2b[4:1],2,{8}5-1[8:1],6,
{4}5/Cf/7>3b[4:1],3<7b[4:1],7,{8}1,1,
{16}8,7,1,6,2,5,3,4,2,1,3,8,4,7,5,6,
3,4,2,5,1,6,8,7,5,6,4,7,3,8,2,1,
3,6,4,5,3,6,4,5,8,7,1,6,8,7,1,6,
2,1,3,8,2,1,3,8,{32}2,3x,4x,5x,1,2x,3x,4x,8,1x,2x,3x,,8,1x,2x,
{2}3bxh[4:1]/7bh[4:1],{32}1,2,3,4,8,7,6,5,1,2,3,4,8,7,6,5,
{4}1xV35[8:1]*-4[8:1],1V75[8:1]*-6[8:1],1,{8}2pp3<6[16:7],2/7h[8:3],
,,,7,8,7,{24}2,3,4,{8}5x/1,
{4}8V64[8:1]*-5[8:1],8V24[8:1]*-3[8:1],8,{8}7qq6>3[8:3],7/2h[8:3],
,,,2,1,2,{24}7,6,5,{8}4x/8,
{4}5<8[8:1]/1>4[8:1],1p5[8:1]/5p1[8:1],1x/5x,{8}3p2<7[8:3],3/5h[8:3],
,,,5,6,5,{24}2,3,4,{8}5x/1,
{4}4>1[8:1]/8<5[8:1],8q4[8:1]/4q8[8:1],8x/4x,{8}6q7[4:1],6/4h[8:3],
,,,{16}2,3,{8}4/7,6,5/8-6[8:1],1,
2/8-4[8:1],4-7[8:1],8,1,2>5[8:1],{16}3,1,{8}2,8,
7-5-1[4:1],8/6,7,1,2,3,{24}1b-3[8:1],8,7,6x/4,{12},{8}1-5[8:1],
5-2[8:1],1,8,7<4[8:1],{16}6,8,{8}7,1,
2-4-8[4:1],1/3,2,8,7,6,{24}8b-6[8:1],1,2,3x/5,{12},{8}8-4[8:1],
4-7[8:1],8,1,2>5[8:1],{16}3,1,{8}2,8,
7-1-6[4:1],8/6,7,4,3,2,5/1,6,
{16}7b/3,8,1,2,3,4,5/8b,7,6,5,4,3,2/5b,6,7,8,
1,8,1,8,2,7,2,7,{32}1,2,3,4,5,6,7,8,1,2,3,4,5,6,7,8,
{1}Cf/B3/B7/A7/A3/1p5>7p3-5-7v1b[4:15]*q5<3p7-1-3v5b[4:15],,,,
E
