&title=花弁、それにまつわる音声
&artist=あばらや
&first=0
&des=人類さん?
&clock_count=4
&lv_5=14
&inote_5=(108)
{1},,
{8}4h[8:1],,4h[8:1],,4w8[8:1],5,,,
{8}1/7,{24},,3,{8}4,{24},,6,{8}5,7,1-5[8:1]/8,3/4,
{8}1,{24},,6,{8}5,{24},,7,{8}8,1,7-4[8:1]/8,5/6,
{8}7,{24},,3,{8}4,{24},,6,{8}5,7,1-5[8:1],2/4,
{8}5/1,,E5,,,3/6,,4b,
{8}3/7,{24},,1,{8}8-3[8:1],{24},,7,{8}8,{24}6,,,4<7[8:1]/5,,,3,,,
{8}2/4,{24},,1,{8}8h[8:1],{24},,2,{8}8v5[8:1],3v8[8:1],,,
{8}6,{24},,8,{8}1-6[8:1],{24},,2,{8}1,{24}3,,,5>2[8:1]/4,,,6,,,
{8}7/5,6<2[8:1]*q4[8:1],5/3,6,,{24}E1,E2,E3,{24}E4,E5,E6,E7,E8,E1,
{8}C,{24},,7,{8}1<6[8:1],{24},,2,{8}1,{24}3,,,5V31[8:1]/4,,,6,,,
{8}5/7,{24},,8,{8}2h[8:1],{24},,8,{8}1v4[8:1],6v1[8:1],,,
{8}3,{24},,2,{8}8>3[8:1],{24},,7,{8}8,{24}6,,,4V68[8:1]/5,,,3,,,
{8}4/2,2pp3[6:1]*<3[6:1],3,
{96}2x,D2,A1,D1,A8,D8,A7,D7,A6,D6,,,
{8},{24}3,,3,4-6[12:1],,4,3,,3,
{8}4-2[12:1],{24}1h[128:1],,,{8}4,
{64}B6,E6,,,,,,,
{8}1,{24}6,,6,5-3[12:1],,5,6,,6,
{8}5-7[12:1],{24}8h[128:1],,,{8}5,
{64}B3,E4,,,,,,,
{8}8,{24}2,,2,4-6[12:1],,4,2,,2,
{8}4-2[12:1],{24}3h[128:1],,,{8}4,{64}B7,B6,,,,,,,
{8}3,5/4,{24}6,,6,4,,4,
{24}5,,5,{24}3qq4[4:1],,,,,,6h[8:3],,,,,,,,,5,,5,6,,,
{8}4xb/7xb,{24}2>5[8:1],,,1,,8,2,,6h[24:4],{8},{24}7<4[8:1],,,8,,1,7,,,
{8}2bh[24:5],{24},,5b,{8}4,3b/7b,,1<1[2:1],{24}5/3,,,1,,,
{8},,,4h[2:1],,,,{24}B2,B3,
{24}B4,
B5,B6,B7,
E2,E3,E4,
E6,E7,E8,1x,2x,3x,4x,5x,6x,{8}7xhb[8:2]/B3/A3f,,,
{8}4/5,{24}2/8,,6,5-7[12:1],,8,{24}1-5[8:1],,,5,,,1,,,{24}8<5[8:1],,4,6,,,
{8}2/8,{24}4,,2,1q5[8:1],,4,{8}5v8[8:1],1,7,{24}6,,6,1b,,,
{8}5/4,{24}8/2,,3,4>2[12:1],,1,{8}8p4[8:1],4,8,{24}1,,5,3,,8x,
{24}1-3[12:1],,6,{24}5-7[12:1],,8,1,,,5,,E3,B3/A3,,E8,B8/B7,,B2,B3/E3,,B6,B5/E6,,4x,
{8}5/4,{24}7/1,,3,4-2[12:1],,1,{24}8-4[8:1],,,4,,,8,,,{24}1>4[8:1],,5,3,,,
{8}7/1,{24}5,,7,8p4[8:1],,5,{8}4v1[8:1],8,2,{24}3xh[8:1],,,8b,,,
{8}4/5,{24}1/7,,6,5<7[12:1],,8,{8}1q5[8:1],5,1,{24}8,,4,6,,1x,
{24}4-1[16:1],,3h[24:1],{24},,6,4-7[16:1],,5h[24:1],,,2,4-8b[12:1],,3h[24:1],,,,4hb[8:1],,,,,,
{24}8-5[8:1],,3,4-1[8:1],,1,8,,,4,,,7,,,2/5,,,4/6,,1,8,,,
{24}5>2[8:1],,8,1<6[8:1],,7,5,,,1,,,3,,,2/4,,6,5,,3,4,,,
{24}1-4[8:1],,6,5-1[8:1],,8,1,,,5,,,2,,,7/4,,,5/3,,8,1,,,
{8}1-5[8:1]/2,7-3[8:1]/8,1,7,2,{24}6,,6,3,,3,8,,8,
{24}1-4[8:1],,6,5-8[8:1],,8,1,,,5,,,2q6[8:1],,,6/3,,,2,,8,8,,,
{24}4<7[8:1],,1,8>3[8:1],,2,4,,,8,,,6,,,7/5,,2,1,,7,8,,,
{8}7-4[8:1]/2,5/3-8[8:1],7/8,3,5-2[8:1],3/1-6[8:1],5/6,1,
{24}3,,8,1,,,5/6,,1,8,,3,4,,6,5,,E2,E3,E4,E5,E6,E7,E8,
{8}Ch[12:1],,,,,,,,
{8},,,,,,,,
{8}4qq4[4:3],,,,8,,7,,
{8}6pp5[4:3],,,,,,,,
{8}2q4[4:3],,,,7,,6,,
{8}5qq8[4:3],,,,,,,,
{8}3h[1:1],,E3,,,,E5,,
{8}6h[4:2],,E7,,8b>6b[4:3],,,,
{8},,,,,,C,,
{8}2/4q8[8:1],,,,7/5p1[8:1],,,,
{24}7,,7,6,,6,5,,5,4,,4,3,,3,2,,2,1,,1,8,,8,
{24}7xb,6,5,2xb,3,4,8xb,7,6,1xb-5b[12:1],2,3,8,,,
{8}Ch[8:3]f,,,,,,,,,3/6,,
{8}4b,{24}2/6,,4,5>2[8:1],,1,{8}8<5[8:1],5,8,{24}1,,1,4b,,,
{8}5/3,{24}1/7,,6,5<8[8:1],,8,{8}2-6[8:1],4/5,2,{24}7,,4,5,,1x,
{24}8<5[8:1],,2,{24}4,,1,8,,3,3,,A7,E7/D7,,A1,E2/B1,,B7,B6/E7,,B4,E5/A4,,6x,
{8}6x/5,{24}3/7,,2,1>4[8:1],,4,{8}6v1[8:1],1/8,6,{24}3>8[8:1],,7,4,,,
{8}5/3,{24}7,,5,4<7[8:1],,8,{8}1>4[8:1],4,1,{24}8h[8:1],,,5b,,,
{8}4/6,{24}2/8,,3,4>1[8:1],,1,{8}7-3[8:1],5/4,7,{24}2,,5,4,,8x,
{24}5<8[16:1],,6,{24}6,,3,5>2[16:1],,4,4,,7,5-1b[12:1],,6,6,,,5hb[8:1],,,,,,
{8}2b/8b,{24}6b/4b,,,5<8[8:1],,8,{8}2>5[8:1],5p1[8:1],2,{24}7,,6,6x,,,
{8}5/1,{24}4/6,,3,5<8[8:1],,8,{8}2>5[8:1],1v6[8:1]/5,2,{24}1,,4,4,,,
{8}2/8,{24}6/5,,,4>1[8:1],,1,{8}7<4[8:1],4q8[8:1],7,{24}2,,3,3x,,,
{24}5>1[8:1],,8,{24}1>5[8:1],,6,5,,8,8,,A7,E7/D7,,A1,E2/B1,,B7,B6/E7,,B4,E5/A4,,6x,
{8}5x/6x,{24}3,,2,7>2[8:1]/2>5[8:1],,6,{8}5-1[8:1],7/2,,{24}6,,6,,,,
{8}3/5,{24}7/4,,8,3pp4[8:1]/8qq6[8:1],,2,{8}4>8[8:1],8/3,,{24}7,,7,1xb,,,
{8}7b-4[8:1]b/8b-3[8:1]b,5b/3b-8[8:1],7b/8b,,5b>2[8:1]b*-1[8:1]b,2b/1b<6[8:1],5b,,
{8}2b-7-4[6:1]b*V85[6:1],3b/4b,2b,,,,,,
{8}1b/7b,{24},,3,{8}5/4>1[8:1],{24},,5,{8}4/6,8,2-5[8:1]/7,3/4,
{8}7/2,{24},,6,{8}4/5<8[8:1],{24},,4,{8}5/3,2,6-1[8:1]/4,8/2,
{8}4/6,{24},,3,{8}4qq2[8:1]/8,{24},,5,{8}6/4,7,3v6[8:1]/6,1/8,
{8}6/3,{24},,7,{8}5,6h[8:1]/4h[8:1],{8},2/6,7-5[12:1]/8,1h[8:1],
{8}7,{24},,3,{8}4/3,{24},,,{8}5h[8:1]/6,8h[8:1],1h[8:1],4h[8:1],
{8}3<6[12:1],{24},4x,4x,{8}3,,,,,
E
