&title=柳高之歌
&artist=广西柳州高级中学
&first=0
&des_1=Team Wither
&des_2=Team Wither
&des_3=Team Wither
&des_4=Team Wither
&des_5=Team Wither
&lv_5=14
&des_6=LZGZからの挑戦状
&lv_6=14+
&des_7=LZGZからの挑戦状
&lv_7=樹
&des=LZGZからの挑戦状
&inote_5=(82){1},1,E
&inote_6=(82){4},,
{4}3V58[8:6],,,,7V15-3[8:6],,,,1<3v5[4:3],,,,8V26-4[8:6],,,,
{8}3V51s5[16:19]b,,,,
{16},6xV48z4[16:9],,,,,,,,,,,
(41){32},,,,,
(82){16}8-2[16:1],2-6[16:1],6V84[8:1],,,,,,
{16}1^7[16:1],7-3[16:1],3^1[16:1],1-5[16:1],,,,,
(164)
{4}6h[4:1],
{32}2x,3,4,5,2x,3,4,5,2x,3,4,5,1x,2,3,4,1x,2,3,4,1x,2,3,4,
{4}5bx-1[8:1],7-4[8:1],78,,
{16}6-1[8:1],5,6,5,6b,,,,3-8[8:1],4,3,4,3b,,,,
{16}7,1,7,1,
{32}7bv4[8:1],6,5,4,3v8[8:1],2,1,8,
{8}7x,3x,6,2,
{16}8,4,1,5,
{24}2,6,2,6,2,6,
{24}15,48,37,26,15,48,7/3b-7[8:1],
{32}2,1,8,7,6,5,4,
{4}3b<8[4:2]/1b>8[4:2],,,,
{16}2x/7x,,1,8,1,,1,8,1,,1,6,1,,1,4,1,,1,3,1,,1,2>6[8:1],1h[4:1],,,,,,,,
{16}7x/2x,,8,1,8,,8,1,8,,8,3,8,,8,5,8,,8,6,8,,8,7<3[8:1],8h[4:1],,,,,,,,
{8}8-4[8:1],7,6,5-1[8:1],4,3,
{8}2-6[8:1],1,8,7-3[8:1],6,5,4h[4:1],,,,
{32}1b,8,1,8,1,8,1,8,1b,8,1,8,1,8,1,8,1b,8,1,8,1,8,1,8,1b,8,1,8,1,,,,
{4}2bx/7bx,
{16}2b-7[8:1]/6b-3[8:1],26,2b/6b,26,2b/6b,,,,,,,,
{4},,,,
(82)
{48}1/5,2,3,4,5,6,3/7,8,1,2,3,4,1/5,6,7,8,1,2,3/7,4,5,6,7,8,
{48}1/5,2,3,4,5,6,3/7,8,1,2,3,4,1/5,6,7,8,1,2,3/7,4,5,6,7,8,1/5,2,3,4,5,6,3/7,8,1,2,3,4,1/5,6,7,8,1,2,3/7,4,5,6,7,8,
(164)
{8}5/1b,,6pp1[8:7],,3h[8:1],,3,4,
{8}3h[8:1],,3-5[8:1],4,3x>8[8:1]/8x<5[8:1],,,,
{48}8x-3[8:1]*-5[8:1],,,,,,8x,,,,,,8x,C1f,,,,,,,,,,,2,,,,,,2/8,,,,,,2b/8,,3,,4,,6,,,6,,,
{16}8h[1:0],1,2/5h[1:0],3,1h[1:0]/4,8,3h[1:0]/7,6,1h[1:0]/5,2,3/7h[1:0],4,1h[1:0]/5,,3/7,,
(82)
{24}5-8[12:1],,5-2[12:1],4-7[12:1],,4-1[12:1],,,,,,,6h[24:5],,,,,3,4,,,5,,,
{24}4-1[12:1],,4-7[12:1],5-2[12:1],,5-8[12:1],,,,,,,3h[24:5],,,,,6,5b,,,,,,
{4},5-1[8:1],5b<7[8:1]*<8[16:3]*<1[4:1]*<2[16:5]*<3[8:3]*<4[16:7],,
{8}5-1[8:1],,5b<7[4:1]*<8[8:3]*<1[2:1]*<2[8:5]*<3[4:3]*<4[8:7]*<5[2:2],,
{4},,,,
{4}8<3[8:6],,,,1-4-8-5[4:3],,,,6-8v1-3[4:3],,,,5qq5-8[4:3],,,,
{8}3V51s5[16:19]b,,,,
{16},6xV48z4[16:9],,,,,,,,,,,
(41){64},,,,,,,,,,,
(164)
{8}2bx/8x,4,1/7bx,5,3bx/8,4,7bx/1>4b[16:1],5,
{48}1b/6bxh[8:3],,,,,,,,,1b,A8,D8,A7,D7,,,,,1b,2bx,3bx,4bx,5bx,,
{4},
{16}4,5,4,5,
{32}4b>1[32:3],,,,,,,,8,7,6,5,8,7,6,5,4b>1[32:3],,,,,,,,8,7,6,5,8,7,6,5,
{32}4b>1[32:3],,,,,,,,8,7,6,5,8,7,6,5,4b,,,,,,,,3b/7b,,,,,,,,
(82)
{32}3/6,,7,8,7,,2>4[16:1],1,2,,6<8[16:1],,6,,2b-6[16:1],,
{32},,6b,,,,2b,,,,,,2/7,,,,
(164)
{48}5/1-4[8:1],E1,B8,B7,E7,,5,,,,,,1/5,,,,,,5,,,,,,6/2-5[8:1],E2,B1,B8,E8,,6,,,,,,2/6,,,,,,6,,,,,,
{48}4/8-5[8:1],E1,B1,B2,E3,,4,,,,,,4/8,,,,,,4,,,,,,3/7-4[8:1],E8,B8,B1,E2,,3,,,,,,3/7,,,,,,3,,,,,,
{8}2b/7b,,2b/8b,1b/7b,7b/8b-5[8:1],,6b/8b,,
{8}3b/4b-1[8:1],,2b/4b,,4b/6b,,5b/7b,2b/5b,
{32}1,,8,,1,,8,,1,,8,,1,,8,,1,,8,,1x,2x,3x,4x,5x,6x,7x,8x,1x,2x/7x,3x/6xpp5[16:9],4bxqq5[32:17],
{1}A5f,
{32}2b/6b,,,,3,,4,,2,,8-4[8:1],,1,,6b<4[16:3],5,
{32}4,,8,,,,6b,,,,,,,,,,3x/7x,,,,6,,5,,7,,1-5[8:1],,8,,3b>5[16:3],4,
{32}5,,1,,,,3b,,,,,,,,,,3x/7x,,,,2,,1,,4,,5-1[8:1],,2,,7b<1[16:3],8,
{16}1,5,,7b,,,5,,4/6,,3/5,,2/8,2/8,,1b/7b,
{16},4b/5b,,3b/7b,,1,8,,2/7,,,,,,,,,,,,,,,,
{32}2,3,4,5,6,7,8,1,2,3,4,5,1,2,3,4,7,6,5,4,3,2,1,8,7,6,5,4,8,7,6,5,
{96}2,,,3,,,4,,,5,,,6,,,7,,,8,,,1,,,2,,,3,,,4,,,5,,,6,,,7,,,8,,,1,,,2b,,,,7b,,,,2b,,,,7b,,,,2b,,,,7b,,,,2,,,,6,,,,2,,,,6,,,,2,,,,6,,,,
{96}3,,,3,,,5,,,4,,,8,,,8,,,6,,,7,,,1,,,1,,,3,,,2,,,7,,,7,,,5,,,6,,,4,,,5,,,4,,,5,,,4,,,5,,,4,,,5,,,4/6,,,5/7,,,6/8,,,7,,,8,,,1,,,2/6,,3/7,,4/8,,
{16}1h[1280:1]/5,,,,
(164)
{16}2b>5[8:1],,1,8,2-6[8:1],,6,6,2,,7,7,2-5[8:1],,1-6[8:1],8,
{24}2,,,1,,,3,,,3,,,5/2,1,8,7,,,
{4}7xh[4:6]/1x-4[8:1],1b-6[8:1],1-5[8:1],
{4}1-4[8:1],
{4}1-6[8:1],1>7b[4:1],1,,
{12}8b<7-5[8:1]*>1-3[8:1],8,,,,,1b<8-6[8:1]*>2-4[8:1],1,,
{24},,,,,,2b<1-7[8:1]*>3-5[8:1],,2,,,,,,,,,,3b>2-8[8:1]*<4-6[8:1],,
{12}3,,,,,4b>3-1[8:1]*<5-7[8:1],4,,,,,
{24}5b>4-2[8:1]*<6-8[8:1],,5,,,,,,,,,,6b>5-3[8:1]*<7-1[8:1],,6,,,,,,,
{24},,,7b<6-4[8:1]*>8-2[8:1],,7,,,,,,,,,,
{4},,,,
{8}6/3-8[8:1],6,6,6,6/8-5[8:1],6,6,6,6/5-1[8:1],6,6,6,6/1-4[8:1],6,6,6,
{8}6/4-8[8:1],6,6,6,6/8-4[8:1],6,6,6,64,,,,,,,,
{24}2,7,2,7,2,7,3,6,3,6,3,6,4,5,4,5,4,5,3b/6b,,,,,,
{24}2/7b,8,1,2,3,4,5,6,7,3b/8,2,1,8,7,6,5,4,3,2/6b,7,8,1,2,3,
{96}4,,,,5,,,,6,,,,2b/7,,,,1,,,,8,,,,7,,,,6,,,,5,,,,4b,,,,3,,,,2,,,,1b,,,8,,,7,,,6,,,5b,,,4,,,3,,,2,,,1b,,,2/8,,,3/7,,,4/6,,,5b,,,4/6,,,3/7,,,2/8,,,
{4}1,
{4}2-5[8:1]/7-4[8:1],2b/7-1[8:1],7/2-6[8:1],2/8-5[8:1],8/2-8[8:1],7-4[8:1]/2-4[8:1],27,
{4}8-5[8:1],7/8-3[8:1],1/8-5[8:1],7/8-2[8:1],
{4}1/8-6[8:1],7/8>6[4:1],1/8,,
(82)
{8}B7/E7/D7f/4b,B6/E6/D6f/3b,B5/E5/D5f/2b,B4/E4/D4f/1b,
{8}B3/E3/D3f/8b,B2/E2/D2f/7b,B1/E1/D1f/7b,
{8}B7/E7/D7f/4b,B6/E6/D6f/3b,B5/E5/D5f/2b,B4/E4/D4f/1b,
(164)
{32}1,2,3,4,5,6,7,8,1,2,3,4,1,2,3,4,8,7,6,5,4,3,2,1,8,7,6,5,8,7,6,5,
{32}2,3,4,5,2,3,4,5,6pp4[4:1]*pp4[4:1],7,8,1,2,3,4,5,,,,,,,,,,,,,,,,,
{32}5/7h[1:0],8,1,2,3,4,5/7h[1:0],8,1,2,3,4,5/8h[1:0],7,6,5,4,3,2/8h[1:0],7,6,5,4,3,2/8h[1:0],7,6,5,4,3,2,1,
{32}2h[1:0],3/8,4/7,5,6,7,8,1/6,2/5,3,4,5,6,4/7,3/8,1,2,3,4,2/5,1/6,7,8,1,2,3,2,3,2,3,2,3,
{32}2/4,3/5,4/6,5/7,6,5/7,6/8,1/7,2bh[4:4]/8bh[4:4],,,,,,,,,,,,,,,,,,,,,,,,
{4},,,,,,,,,,,,,,,,E7/B7/E8/B8/E1/B1/E2/B2/E3/B3/B4/E5/D5f,
E
&inote_7=(41)
{4},8!V63[8:3],,,2!<3[8:3],3h[8:3],,7!-1-5-3[8:3],,2!<3[8:3],3h[8:3],,
{32},
{8}8^6[22#32:1],6-2[2.4375##0.325],2^8[2.0625##0.325],8-4[1.6875##0.325],,,1?v3[160#4:1]*>1[160#8:5],
{16},,
{8}4v6[20#64:1],4v2[2.625##0.1625]*v2[2.625##0.1625],4v7[2.25##0.1625]*v7[2.25##0.1625],4v1[1.875##0.1625],4!w8[16:3],,,,
{64}6,,,,7-5[21#64:1],,,,,,,8-4[21#64:1],,,,1-3[21#64:1],,,,,,,2,,,,,,,,
,6,,,,7,,,,,,,8,,,,1,,,,,,,,2,,,,,,,,
{32},
{16}7^5[16:1],5v4[16:1],4^2[16:1],7,7,
,,,1-7[24:1]/7-1[24:1],3-5[24:1]/5-3[24:1],1v4[24:1]/7v4[24:1],,,{4},
{16},27,,{64}1b/8b,2,3,4,5,6,7,8,1,2,3,4,5,6,7,8,
{16},,27,,{64}1b/8b,7,6,5,4,3,2,1,8,7,6,5,4,3,2,1,2!V46>2[4:1],,,,
{16}2,4,6,2,,,,,
8-4[16:1],4>4[8:1],8,4,8,,
{32},2!>6[32:1]*<6[32:1],{16}2,3,4,{32}5,{16}6!<2[164#8:1]*>2[164#8:1],2!>6[164#8:1]*<6[164#8:1],6!<2[164#8:1]*>2[164#8:1],
8!w4[164#8:1]*w4[164#8:1],4!w8[164#8:1]*w8[164#8:1],8!w4[164#8:1]*w4[164#8:1],4!w8[164#1:1]*w8[164#1:1],,,,,,,,
{16}5-1[16:1],1,5b<7[4:2]*<8[4:3]*<1[4:4]*<2[4:5]*<3[4:6]*<4[4:7]*<5[1:2],1,5,
{32},,,{1},{4},,,5!<7[4:2]*<8[4:3]*<1[4:4]*<2[4:5],,,,,,
{32},,,,,,,
{16},{8}7h[2:1]`7?p6[20.5#16:1],6h[8:3],2h[4:1]`2?q3[8:1],3h[8:1],,
{16},{64}A4,B4,C,B8,A8,E8/E1,E7/E2,A2/A6,{16},,,
(20.5){16}3V14[16:1]b*-5[128:1]b/5V74[16:1]b*-3[128:1]b,4-8[32:1]b,8-5[23#16:1]b*-3[23#16:1]b,26,3b/4b/5b,,,,
(41){16}6h[16:7]/5h[16:7],4h[8:3],,3h[4:1],1b,,8b,,7-5v4-2-4v5-7[16:3],8,,1,7,,1,,
4-2[32:1],5-7[32:1],4-8[32:1],5-1[32:1],4,5,4,5,4-8[16:3]*-1[16:3]*-7[16:3]*w8[16:3],,,,,,,,
{8},45,{128}1,2,3,4,1,2,3,4,8,7,6,5,8,7,6,5,1,2,3,4,5,6,7,8,1,2,3,4,5,6,7,8,
{8},18,{128}8,7,6,5,8,7,6,5,1,2,3,4,1,2,3,4,8,7,6,5,4,3,2,1,8,7,6,5,4,3,2,1,
{16},E8/E6/B7/B6,B1/B2/B3/B4/B5/B6/B7/B8,B1/B2/B3/B4/B5/B6/B7/B8,
5-7[82#16:1]*-3[82#16:1]/3-1[82#16:1]*-5[82#16:1]/6-8[82#16:1]/2-8[82#16:1],,,,
{128},,,,,,,,1x,8x,7x,6x,,,,,1x,2x,3x,4x,,,,,2x,3x,4x,5x,,,,,8x,7x,6x,5x,,,,,,,,,,,,,2x,1x,8x,7x,,,,,{16},
8-5[32:1]b,8-4[32:1]b,8-3[32:1]b,8-2[32:1]b,8-6[32:1]b,8-5[32:1]b,8-4[32:1]b,8-3[32:1]b,
8>8[16:3]b,8,8,8,8,,,,,,
56,34,3/4/5/6,3/4/5/6,,2/3/6/7,7/2/8w4[16:3]/1w5[16:3],,,,1hb[16:3]/8hb[16:3],,,,
{8},2/3/6/7,8hbx[32:25],7hbx[32:21],6hbx[32:17],1hbx[32:13],2hbx[32:9],3hbx[32:5],{16}4hbx[32:1],
E2/E4/B2/B3,B8/B7/B6/B5/B4/B3/B2/B1,B8/B7/B6/B5/B4/B3/B2/B1,
4-2[82#16:1]*-6[82#16:1]/6-8[82#16:1]*-4[82#16:1]/3-1[82#16:1]/7-1[82#16:1],,,,
{128},,,,,,,,8,1,2,3,,,,,8,7,6,5,,,,,7,6,5,4,,,,,1,2,3,4,,,,,,,,,,,,,7,8,1,2,,,,,{16},
1-4[32:1]b,1-5[32:1]b,1-6[32:1]b,1-7[32:1]b,1-3[32:1]b,1-4[32:1]b,1-5[32:1]b,1-6[32:1]b,
1<1[16:3]b,1,1,1,1,,,,,,
56,34,3/4/5/6,3/4/5/6,,
2/3/6/7,7-5[16:3]*-4[16:3]/2-4[16:3]*-5[16:3]/8w4[16:3]*-4[16:3]/1w5[16:3]*-5[16:3],,,,
1hbx[16:3]/8hbx[16:3]/7hbx[16:3]/2hbx[16:3],,,,E
