&title=リレイアウター
&artist=稲葉曇; 歌愛ユキ
&first=0
&des=IMRIS
&lv_5=13
&inote_5=(151)
{1},,
{4}2h[8:1],2h[8:1],2h[8:1],2h[8:1],
{4}4h[8:1],4h[8:1],4h[8:1],5h[8:1],
{4}6h[8:1],6h[8:1],6h[8:1],{8}5h[8:1],,
{4}4h[8:1],4h[8:1],{8}4h[8:1],5,6h[8:1],5,
{4}3h[8:1],3h[8:1]/8x,3h[8:1],3h[8:1]/4x,3h[8:1],3h[8:1]/1x,3h[8:1],{8}3h[8:1]/4x,5,
{4}6h[8:1],6h[8:1]/8x,6h[8:1],6h[8:1]/5x,
{8}5-3[8:1],5,7-3[8:1],7,1w5[8:1],,,,
{4}3b-8[8:1]/7b-4[8:1],37,1>4[8:1]/5<8[8:1],15,
{8}1-6[8:1],1,2<7[8:1],2,5h[8:1],,8h[8:1]/6h[8:1],,
{4}2-5[8:1]/4-7[8:1],24,8-4[8:1]/5-1[8:1],85,
{8}2-7[8:1],2,4<8[8:2],4,8>4[8:2],,4,,
{8}1h[8:1],,1h[8:1]/5,6,1h[8:1],4,1h[8:1],8,1h[8:1],4,1h[8:1],2,1h[8:1],4,1h[8:1],8,
{8}7h[8:1],,7h[8:1]/4,3,7h[8:1],5,7h[8:1],1,62,62,73,73,8v2[8:1]/4v6[8:1],,,,
{8}3h[8:1]/5h[8:1],,3h[8:1]/5h[8:1],,34,25,34,25,4pp6[8:1]/6,,1,,
{8}35,26,35,26,4p7[8:1]/7,,1,,
{8}56,47,56,47,
{8}53,1,35,6,25,8,25,7,
{8}3/5w1[8:1],,5,,65,74,65,74,5qq3[8:1]/3,,8,,
{8}64,73,64,73,5q2[8:1]/2,,8,,
{8}43,52,43,52,
{8}46,8,64,3,47,8,1,2,
{8}3-8[8:1]/4-8[8:1],,3b/4b,,1>4[8:1],2,5,6,1q5[8:1],2,5,6,7h[8:1],,3h[8:1]/5h[8:1],,
{8}6-1[8:1]*-8[8:1],,,,7<4[8:1],6,3,2,7p3[8:1],6,3,2,1h[8:1],5,5,4xq1[8:1]/6x<1[8:1],
{8},,,,2<7[8:1],1,5,6,2q6[8:1],1,6,7,8h[8:1],,6h[8:1]/4,3,
{8}2-5[8:1]/4-8[8:1],,24,,7V51[8:2],1,2,3,4>6[8:2],,6<3[8:2],,4,,6,7,
{8}8-3[8:1]/5-2[8:1],,5/8-5[8:1],,8,B1,E3,47,
{8},6h[8:2],1h[8:1],,2-4[10:1]/5-3[10:1],,2-8v7[8:2]/5,,,,6x-4-8-3[16:5],,,,2,2-6[8:1],,5-2[8:1],,,,1,18,,
{8}1-6[8:1]/7-4[8:1],,1-4[8:1]/7,,1,B8,E7,25,3,6,4/5>2[8:1],,5<8[8:1]/7,,35,,
{8}47,4-6[10:1]/7-5[10:1],47,47,,47,82,71,71,6/2-5[10:1],53,6xqq7b[16:4],,,,,
{16}1bh[8:1],,7,3,1h[8:1],,3,8,2h[8:1],,6,1,4h[8:1],,3,7,
{8}5<7[10:1],3,4q8[8:1],2,3v1[8:1],1,2h[8:1],,
{16}37,,6,1,4h[8:1],,2,5,3h[8:1],,7,4,1h[8:1],,2,6,
{8}8<6[10:1],2,1p5[8:1],3,2<7[8:1],3,5V38[8:2],5,
{8}8V62[16:3],,4,,{16}4h[8:1],,8,3,6,,2,,
{8}1-5[8:1]/4-8[8:1],,14,,{16}3h[8:1],,7,2,5,,1,,
{8}4<7[8:1]/8>3[8:1],,84,,8qq1[8:2]/4,,84,,
{8}2,2,8/4>6[8:2],75,6xp1b[8:1],,,,
{16}8bh[8:1],,2,6,8h[8:1],,5,1,7h[8:1],,3,8,5h[8:1],,6,2,
{8}4>2[10:1],6,5p1[8:1],7,6v8[8:1],8,7h[8:1],,
{16}26,,3,8,5h[8:1],,6,4,5,3,5,3,7h[8:1],,4,6,
{8}2<7[8:1],3,4V61[8:2],5,1V37[16:3],,4,,
{8}2h[8:1],,3h[8:1]/8h[8:1],,{16}2/4,,5,3,7,,4,,
{8}3-1[8:1]/8-5[8:1],,38,,{16}2/4,,5,3,7,,4,,
{8}3>8[8:1]/8<5[8:1],,38,,4-7[8:1]/8-3[8:1],,48,,
{16}8b,,57,,4,6,2,4,8,,1x,1x,5xw1[8:1],,,,
{8}5b<4pp4qq4b[8:6]/Cf,,,,,,,,1xw5[8:1],,
{8}1qq1pp1[16:7],,,,,,8xw4[8:1],,
{8}8pp8qq8[16:7],,,,,,
{8}1,2,71,5,16,3,16,4,
{8}2/5w1[8:1],,5,,65,74,65,74,5qq3[8:1]/3,,8,,
{8}64,73,64,73,5q2[8:1]/2,,8,,
{8}43,52,43,52,37,48,37,26,37,37,{16}7x,6x,5x,4x,
{8}1bw5[8:1],,1,,8<5[8:1],7,4>2[8:1],3,8p4[8:1],7,4p8[8:1],3,2h[8:1],,3h[8:1]/7,6,
{8}4-1[8:1]*-8[8:1]/5,,,,2>5[8:1],3,6<8[8:1],7,2q6[8:1],3,6q2[8:1],7,8,7,7,5xp8[8:1]/3x>8[8:1],
{8},,,,7>2[8:1],8,4<6[8:1],3,7p3[8:1],8,3p7[8:1],2,1h[8:1],,3h[8:1]/5,6,
{8}7<4[8:1]/5-1[8:1],,7/5,,2<7[8:1],4,6,,6-1[10:1]/8b,4b/2-5b[10:1],6b,2bq4[8:2],
&inote_6=(151)
{1},,
{4}2h[8:1],2h[8:1],2h[8:1],2h[8:1],
{4}4h[8:1],4h[8:1],4h[8:1],5h[8:1],
{4}6h[8:1],6h[8:1],6h[8:1],{8}5h[8:1],,
{4}4h[8:1],4h[8:1],{8}4h[8:1],5,6h[8:1],5,
{4}3h[8:1],3h[8:1]/8x,3h[8:1],3h[8:1]/5x,3h[8:1],3h[8:1]/1x,3h[8:1],{8}3h[8:1]/4x,5,
{4}6h[8:1],6h[8:1]/8x,6h[8:1],6h[8:1]/5x,
{8}5-3[8:1],5,7-3[8:1],7,1w5[8:1],,,,
{4}3b-8[8:1]/7b-4[8:1],37,1>4[8:1]/5<8[8:1],15,
{8}1-6[8:1],1,2<7[8:1],2,5h[8:1],,8h[8:1]/6h[8:1],,
{4}2-5[8:1]/4-7[8:1],24,8-4[8:1]/5-1[8:1],85,
{8}2-7[8:1],2,4<8[8:2],4,8>4[8:2],,4,,
{8}1h[8:1],,1h[8:1]/5,6,1h[8:1],4,1h[8:1],8,1h[8:1],4,1h[8:1],2,1h[8:1],4,1h[8:1],8,
{8}7h[8:1],,7h[8:1]/4,3,7h[8:1],5,7h[8:1],1,62,62,73,73,8v2[8:1]/4v6[8:1],,,,
{8}3h[8:1]/5h[8:1],,3h[8:1]/5h[8:1],,34,25,34,25,4pp6[8:1]/6,,1,,
{8}35,26,35,26,4p7[8:1]/7,,1,,
{8}56,47,56,47,
{8}53,1,35,6,25,8,25,7,
{8}3/5w1[8:1],,5,,65,74,65,74,5qq3[8:1]/3,,8,,
{8}64,73,64,73,5q2[8:1]/2,,8,,
{8}43,52,43,52,
{8}46,8,64,3,47,8,1,2,
{8}3-8[8:1]/4-8[8:1],,3b/4b,,1>4[8:1],2,5,6,1q5[8:1],2,5,6,7h[8:1],,3h[8:1]/5h[8:1],,
{8}6-1[8:1]*-8[8:1],,,,7<4[8:1],6,3,2,7p3[8:1],6,3,2,1h[8:1],5,5,4xq1[8:1]/6x<1[8:1],
{8},,,,2<7[8:1],1,5,6,2q6[8:1],1,6,7,8h[8:1],,6h[8:1]/4,3,
{8}2>5[8:1]/4-8[8:1],,24,,7V51[8:2],1,2,3,4>6[8:2],,6<3[8:2],,4,,6,7,
{8}8-3[8:1]/5-2[8:1],,5/8-5[8:1],,8,B1,E3,47,
{8},6h[8:2],1h[8:1],,2-4[10:1]/5-3[10:1],,2-8v7[8:2]/5,,,,6x-4-8-3[16:5],,,,2,2-6[8:1],,5-2[8:1],,,,1,18,,
{8}1-6[8:1]/7-4[8:1],,1-4[8:1]/7,,1,B8,E7,25,3,6,4/5>2[8:1],,5<8[8:1]/7,,35,,
{8}47,4-6[10:1]/7-5[10:1],47,47,,47,82,71,71,6/2-5[10:1],53,6xqq7b[16:4],,,,,
{16}1bh[8:1],,7,3,1h[8:1],,3,8,2h[8:1],,6,1,4h[8:1],,3,7,
{8}5<7[10:1],3,4q8[8:1],2,3v1[8:1],1,2h[8:1],,
{16}37,,6,1,4h[8:1],,2,5,3h[8:1],,7,4,1h[8:1],,2,6,
{8}8<6[10:1],2,1p5[8:1],3,2<7[8:1],3,5V38[8:2],5,
{8}8V62[16:3],,4,,{16}4h[8:1],,8,3,6,,2,,
{8}1-5[8:1]/4-8[8:1],,14,,{16}3h[8:1],,7,2,5,,1,,
{8}4<7[8:1]/8>3[8:1],,84,,8qq1[8:2]/4,,84,,
{8}2,2,8/4>6[8:2],75,6xp1b[8:1],,,,
{16}8bh[8:1],,2,6,8h[8:1],,5,1,7h[8:1],,3,8,5h[8:1],,6,2,
{8}4>2[10:1],6,5p1[8:1],7,6v8[8:1],8,7h[8:1],,
{16}26,,3,8,5h[8:1],,6,3,5,2,7,4,1h[8:1],,4,8,
{8}2<7[8:1],3,4V61[8:2],5,1V37[16:3],,4,,
{8}2h[8:1],,3h[8:1]/8h[8:1],,{16}2/4,,5,3,7,,4,,
{8}3-1[8:1]/8-5[8:1],,38,,{16}2/4,,5,3,7,,4,,
{8}3>8[8:1]/8<5[8:1],,38,,4-7[8:1]/8-3[8:1],,48,,
{16}8b,,57,,4,6,2,4,8,,1x,1x,5xw1[8:1],,,,
{8}5b<2qq3q4[8:6]/Cf,,,,,,,,1xw5[8:1],,
{8}1qq2q3[8:4],,,,,,8xw4[8:1],,
{8}8qq1q2[8:4],,,,,,,,
