&title=いつだって僕らは
&artist=ノクチル
&first=0.03
&des=革命!!
&lv_5=13+
&inote_5=(182){1},
{8}3h[8:3],,5,5,,7h[4:4],,B4,
{8},B6,,B8,,B2,,,
{8}6h[8:3],,4,4,,2h[4:4],,E7,
{8},E5,,E3,,E1,Cf/B5/B4/E5,,
{8}2x/6x,7-4[8:1],8,7,,2-5[8:1],1,2,
{8},7V51[8:2],8,7,2,2,3,7,
{8}46,2-5[8:1],1,2,,7-4[8:1],8,7,
{8},2,2<7[8:1],6,4,4,1,5,
{8}35,7-4[8:1],8,7,,2-5[8:1],1,2,
{8},7V51[8:2],8,7,2,2,3,5,
{8}46,8,1,35,1,8,74,2h[8:2]/5,
{8},E7,E6b,E4,E3,{16}8x,8x,1x,,,,
{4}3h[4:1]/4,1,{8}6h[4:1]/4,4,{4}1,
{4}3h[4:1]/4,1,{8}64,35,{4}8,
{4}6h[4:1]/5,8,{8}3h[4:1]/5,5,{4}8,
{8}6h[4:1]/5,,8,8>3[4:1],,3<6[4:1],,,
{4},{8},4,{4}4-2[8:1],{8}6,6-4[8:1],
{8},1,1V35[4:1],3-7[8:1],,,{4},
{8}6hx[8:1],4h[8:1],5h[8:1],3h[8:1],4,1,7,3h[8:2],
{8},E7,E6,E4b,E3,{16}8x,8x,{4}1bx,
{8}7,7h[8:3],5>3[8:1],5,,,1,1h[8:3],
{8}4<6[8:1],4,,,8-4[8:1],8,1,,
{8}2,2h[8:3],4<6[8:1],4,,,8,8<6[8:1],
{8}5,3,,2q6[8:1],,7<1[16:6],,,
{4},{8},5,{4}5-2[8:1],{8}7,7-4[8:1],
{8},1,1V35[4:1],3q7[8:1],,,{4},
{8}8,8,2,37,,5/6<8[8:1],,4h[8:2],
{8},E7,E6,E4,E3b,{16}8,1,8-4[8:1],,,,
{8}4b<7[4:1],,2,2,{8},8,8-5[4:1],,
{8}2,2,,46,,3,{8}1-5[8:1]/7,,
{8}5b>2[4:1],,7,7,{8},1,1-4[4:1],,
{8}7,7,,53,,6,{8}46,,
{8}2h[8:2]/5,,4,4,3/7h[8:2],,5,5,
{8}2h[8:2]/6,,4,4,71,,1>4[4:1],,
{8}4<7[4:1],,8,,4,,1q5[8:1],5<3b[4:1],
{8},,,,8,,{32}E7b,E6,E4,E3,{8},
{8}8x-5[8:1],,3,3,28,6,6,{16}1/7-4-6-1[8:3],,
,,{8}2,2,3,4-1[8:1]*-7[8:1],,,,
{8}2-5[8:1]/6,,8,8,73,1,1,{16}6-1-7-4[8:3]/2,,
,,{8}3,3,2,1<6[8:1]*>4[8:1],,,,
{8}28,3,7/4,6,5/2,3,74,65,
{16}8,1,{8}7,64,2,35,7,{16}1,8,{8}2,
35,35,47,47,{16}26,,5-2b[8:1],4,6,,{32}E7,B7,B8,E1f,
{4},{4},{16}36,,8,1,8,1,8,1,
{4}8V64-2[4:1],4h[4:1],{8},5<3[4:1],8,8b,
{4},6h[4:1],5-1[8:1],5/4,
2>8[4:1],5h[4:1],{8},4pp3[4:1],4,3b>6[4:1],
{4},,{2}4xq8[8:1]*p8[8:1],
{4}4-2[8:1],{8}5,5,{4}3/4-7[8:1],{8}2,2,
{4}5/4-8[8:1],{8}7,7,5,1,{4}1q5[8:1]/4,
{8}7b,,8,8,71,3,3,5b-7[8:1]/4b-8[8:1],
{4},,{16}52,,3,4,3,4,3,4,
{4}1-3V57[4:1],5h[4:1],{8},4>6[4:1],1,1b,
{4},4h[4:1],5-1b[8:1],56,
8<2[16:5]/3<1[16:5],8/3,,{8}4/7,7bp3[8:1]/4b,
{4},2h[4:1],1-5[8:1],1/8,
6b/3bqq5[8:3],{8}4,4,6,7,7,3bV52[4:1]/8bV61[4:1],
,,{4},{16}47,,6,5,6,5,6,5,
{4}7pp8<4[8:3],7/3h[4:1],{8},8-3-7[4:1],8,3b,
{4},5h[4:1],8-4[8:1],82,
1qq8>4[8:3],1/5h[4:1],{8},8V25[4:1],8,5b<3[8:2],
{4},,4xw8b[8:1],,
3/4-1[8:1],4/5-8[8:1],7/5>1[16:3],{8}6,6,
{4}4<8[16:3],{8}3,3,{4}5h[4:1],1<6[8:1],
{8}B5/E5f/B4,,1,1,26,26,43,{8}5b/1b,
{16},,7,,7h[4:1],,,,1x,8x,,,27,,,,
{4}8/1-5[8:1],1/7-4[8:1],7/1<6[8:1]*>4[8:1],1b,
2/7-4[8:1],7/2-6[8:1],2/8-5[8:1]*-3[8:1],8b,
6/2-5[8:1],2/7-3[8:1],7/1w5[8:1],1b,
{16}8/2-5[8:1],,8,,6,,6,,7/8,,61,,25,,3,4,
{16}2-5[8:1],,,,25,,,,64,,7-4[8:1],5,8,,74,,
{8},2,2h[8:2],,1-5[8:1],,81,,
{4}2qq5[8:3]/7,{8}4,4,6,7,7,8b<5[8:1],
{8},82,1<6[8:1],,{32}1x/5x-8b[8:1],,,,,,,,45,,,,,,,,
{8}2x/6x,7<4[8:1],8,7,,2>5[8:1],1,2,
{8},7<4-8[8:2],8,7,1,1,3,6,
{8}46,2>5[8:1],1,2,,7<4[8:1],8,7,
{8},1,1<6[8:1],,1/5-8b[8:1],,45,,
{8}64,2>5[8:1],1,2,,7<4[8:1],8,7,
{8},2>5-1[8:2],1,2,8,8,6,2,
{8}24,1,8,57,8,1,25,8bh[8:2]/4b,
,7,1,2,{16}A6,A5,A4,A3,A2,A1,{8}A8f/4bqq3b[8:31]*pp5b[8:31],
E
