&title=東方妖々夢 ULTIMATE MEDLEY 2K18
&artist=Astral Sky vs. 非可逆リズム
&first=0
&des=ULTIMATE TRUTH
&lv_5=14+
&inote_1=
&inote_5=(220)
{1},,
{8}1-5[8:1],,,,6-8[8:1]/4-2[8:1],6/4,,,1-5[8:1],,1w5[8:1],,1b,,3/7,,8h[4:5]/Cf,,,,,,2,,3,,4,,6/B2,,4/B8,,1-6[8:1]/3,2/8,1x-4[8:1]/7xh[2:1],,1,,
{32}1,B1,C,B5,,,,,
{8}8,8,7,7,6/4,6/4,{16}3,5,3,5,2,4,2,4,{16}1h[16:1],3h[16:1],1h[16:1],3h[16:1],
{4}8xqq4[2:3],,,,,,,,5<1v6[4:5],,,,3h[4:7],,,,
{4}E5,E4,E3,E2,E1/D1/3,E8/D8/3,E7/D7/2,E6/D6/2,
{8}4,4,3/5,3/5,6h[16:1],6h[16:1],7h[16:1]/3h[16:1],7h[16:1]/3h[16:1],
{16}2/B6,,,8/B4,,,2/C,,8bx<5[8:1]/4bx>1[8:1],,,,
{8},,4xh[4:1],,2,2-5-1[4:1],,8,8h[2:1],,2,3,4,5>1[8:1],,7,7h[4:1],,8h[4:1],,5,5-2-6[4:1],,1,1h[8:1],,8b-3[8:1]*-2[8:1],,8b-5[8:1]*-6[8:1],,8b,,C,,
{8}2h[8:3],,1,1V75[4:1],,3,3,2,1>4[8:1],1,7,8<5[8:1],8,2,1,8,1bx-6[8:1],,4,4b-8[8:1],,2,2bh[8:3],,,6,3/7,4/8,{16}1b-6[8:1]/5b-2[8:1],,,,,,,,
{4}3xh[8:1],3h[8:1],3h[8:1],3h[8:1],5h[8:1],5h[8:1],5h[8:1],5h[8:1],4h[8:1],4h[8:1],4h[8:1],4h[8:1],6h[8:1],6h[8:1],6h[8:1],6h[8:1],
{8}5,4,3,5,4,3,5,4,3,5,4-8-6[4:1],3,2h[4:1],,,,4,5,6,4,5,6,4,5,6,4,5,6,7-2[8:1]*-4[8:1],,,,
{8}3h[4:1],,8-5[8:1],,3,3,3-6-4-1[4:3],,7h[8:1],,7h[8:1],,7h[8:1],,8b,,5h[4:1],,1-5[8:1],,7-3-8-6[4:3],7,7,,4h[8:1],,4h[8:1],,3,{16}3bx,5bx,1b,,,,
{8}7-3[8:1]/3-8[8:1],,,,1/5,2/6,3/7,,8-5[8:1]/4-1[8:1],,,,2/6,3/7,4b>1[8:1]/8b,,4<7[8:1],,4-8[8:1],,4,,1-5z1[2:1]/7-3s7[2:1],,,,,,,,Cf/B8/B2/B4/B6,,
{8}2-6[8:1],2,7-4[8:1],7,1-5[8:1],1,8-3[8:1],8,2-6[8:1],2,7-3[8:1],7,8,1b,1b>3[8:1],1b,1b/5-1[8:1],5,4-6[8:1],4,7-3[8:1],7,2,2,
{16}1,8,7,6,5,4,3,2,1bw5[8:1],,,,1b,,,,
{8}7-3[8:1],7,2>5[8:1],2,1-7[8:1],1,6-2[8:1],6,8xv5[8:1],8,1>4[8:1],1,7,8b,8b,8b,
{8}8b/2-6[8:1],2,7-3[8:1],7,1-5[8:1],1,8,8,
{32}8,7,6,5,4,3,2,1,8,7,6,5,4,3,2,1,8w4[8:1],,,,,,,,8b,,,,,,,,
{4}2-7-5s1[2:3]/6h[4:1],,6xh[4:1],,7x,7h[2:1],,,{4}8q5v7[8:5]/2h[4:1],,3,3,{8}4h[16:1],4h[16:1],{12}5x-7[8:1]*<8[8:1],5x,5x,5xb-3[8:1]*>2[8:1],,,5b,,,
{16}1-5[8:1]/8,,,2,1,,3,,4v7[8:1]/6,,6,,5,,,,6/8-4[8:1],,,1,8,,2,,3<5[8:1],,8b,,8b,,8b,,
{8}7,7,6,6,{8}5h[16:1]/2h[16:1],5h[16:1]/2h[16:1],4h[16:1]/1h[16:1],4h[16:1]/1h[16:1],
{16}3x,2,1,8,5x,4,3,2,1w5[8:1],,,,1b,,,,
{16}7,6,5,4,1,2,3,4,1,8,7,6,4,3,2,1,5,8,5,8,5,8,5,8,6,1,6,1,7,2,7,2,
{4}8xbqq5[4:3],A2/B2/E2,,A3/B3/E3,
{8},6x,6x/A3/B3/E3,,5/4,5h[8:1]/4h[4:1],,,
{16}7bx,5,6,5,6,5,7b,5,6,5,6,5,8b,,,,2b,4,3,4,3,4,2b,4,3,4,3,4,1b,,,,
{8}6,6,7/5,7/5,3,3,2/4,2/4,7,7,6/8,6/8,
{16}1,5,1,5,3,7,3,7,
{16}4h[8:1]/6h[8:1],,,2h[8:1]/5h[8:1],,,7x,,4h[8:1]/6h[8:1],,,2h[8:1]/5h[8:1],,,7x,,
{4}8bx>3[8:1]*<5[8:1],8bw4[8:1],8b,C,
{8}4/A8f/E1/E8/B7/B8/B1,,,6h[8:3]/A2/E2/E3/B2/B3/B1,,,,,8/A4f/E5/E4/B3/B4/B5,,,2h[8:3]/A6/E6/E7/B6/B7/B5,,,,,1/A5f/E6/E5/B4/B5/B6,,,3h[8:3]/A7/E7/E8/B7/B8/B6,,,,
{8}4>1p3[8:5]/A8f/E1/E8/B7/B8/B1,,,A7f,,A6f,,A5f,,
{4}4bw8[8:1],,5bw1[8:1],,{16}4bw8[8:1],,,,,Cf,,,5bw1[8:1],,,,,Cf,,,
{16}3,7,3,7,2,6,2,6,1,5,1,5,8,4,8,4,
{2}7pp2[2:1]/3pp6[2:1],,
{8}7V13[4:1]/3,,3V17[4:1]/7,4,5-1[8:1],,5,,2V86[4:1]/5,,6V82[4:1]/2,5,4-8[8:1],,4,,1-5[8:1],7,1,8-4[8:1],2,8,2q5[2:1],,6h[8:1],,7h[8:1],,8h[8:1],,1h[8:1],,
{8}5>2[8:1],,8<5[8:1]/5,,8/1,,2-6[8:1],4,1-5[8:1],,8-4[8:1],,7-3[8:1],,7,,
{8}2-4[8:1],1-5[8:1],2,1,
{16}2xh[4:1],,6xb,7xb,8xb,,,,
{8}3-8[8:1],4-7[8:1],3,4,1-5[8:1]*-6[8:1],,A1f,,
{8}7b/4b,7b/4b,7b-3[8:1]b/4b,,7b/1b-5[8:1]b,,4b<7[8:1]b/1b,,4b/2b-6[8:1]b,,1bp5[8:1]b/2b,,3b-7[8:1]b/1b,,4b/3b,4b,
{4}5b>2[8:1]*-2[8:1],5b<8[8:1]*-8[8:1],5b-1[8:1],5b,
{12}2bh[12:1]/4h[12:1],,1bh[12:1]/8h[12:1],,7bh[12:1]/5h[12:1],,7h[12:1]/5bh[12:1],,1h[12:1]/8bh[12:1],,2b/4,,
{16}1-5[8:1],,1,,7-3[8:1],,7,,4>1[8:1],,4,,8,7,6,5,4-8[8:1],,4,,2v5[8:1],,2,,1<6[8:1],,1,,4,3,2,1,
8bV24[8:1],,,,5b,6,7,8,1bV75[8:1],,,,4bh[32:1],3h[32:1],2h[32:1],1h[32:1],
{24}8bh[24:14],,,,,,,,,,,,,,,A1/A7,A2/A6,A3/A5,A4f,,,,,,
{8}2v5[8:1],1-6[8:1],2,1,8-3[8:1],7v4[8:1],8,7,2>5[8:1],6v1[8:1],2,6,4>1[8:1],8,8
{16}8,7,6,5,
{8}4-7[8:1],1-5[8:1],4,1,8-4[8:1],3-1[8:1],8,3,
{16}5,6,7,8,1/2,3,4,5,8,7,6,5,4/1,2,3,4,6,5,6,5,6,,7/4,,3,4,3,,1,8,1,8,2/7,,2/7,,3/5,,3/5,,7,8,7,8,7,,1/6,,3,4,3,,6,5,6,,2,7,2,7,1,8,1,8,
{12}2,4,3,7,5,6,
{32}1,2,3,4,5,6,7,8,1b/5b,,,,,,,,
{16}3,7,2,,1/5,,1/5,,3/7,,7/3,,2,5,4,7,1bs5[4:1],,,,1,,7bh[8:3],,,,,,,,,,
{16}6,2,7,,8/4,,8/4,,6/2,,2/6,,7,4,5,2,8bz4[4:1]b,,,,8,,2bh[8:3],,,,,,,,,,
{16}1,5,1,5,2,6,2,6,3,7,3,7,4,8,4,8,
{16}4x/8x,3/7,2/6,1/5,{24}4,3,2,1,8,7,{32}1/6,2,3,4,5,6,7,8,1h[64:1],2h[64:1],3h[64:1],4h[64:1],5h[64:1],6h[64:1],7h[64:1],8h[64:1],
{1}1bs5[4:10]/5b,,,{4},
{16}E6,B5,B4,E4,
