&title=STAR☆CARNIVAL
&artist=ティンクル☆くるせいだーす GoGo!
&first=0
&des=Tane
&lv_4=9+
&lv_5=12+
&inote_4=(139){1},
{2}5h[4:3],2,4h[4:3],7,
{4}5h[4:3],,2,3,
4h[4:3],,6,7,
{8}8b<1[2:3],,,,
,,,,
{8},,,,
,,,2b,
{8}2b,,5h[4:2],,
{16}4,,,,
3,,,,
{8}2,,4h[4:2],,
{16}5,,,,
6,,,,
{16}1,,,,
2,,,,
45,,,36,
,,27,,
{8}8-3[8:1],,,,
{16}3-6[8:1],,,,
,,,,
{16}8,,,4,
,,3,,
2,,,,
15,,,,
{8}7h[4:1],,,,
1h[4:1],,,,
{8}3^6[4:1],,,,
{16},,,,
,,,,
{8}1-6[8:1],,,,
{16}6-3[8:1],,,,
,,,,
{16}1,,,5,
,,6,,
7,,,,
84,,,,
{8}2h[4:1],,,,
8h[4:1],,,,
{8}7<2[2:1],,,,
,,,,
{8}12,12,38,,
{16}4-8[16:2],,,,
,,,,
{8}5-2[8:1],,,,
1,,,,
{4}34,34,56,56,
{1}1^4[2:1]/8^5[2:1],
{8}87,87,61,,
{16}5-1[16:2],,,,
,,,,
{8}4-7[8:1],,,,
8,,,,
{4}65,65,43,43,
{8}4-1[2:1]/5-8[2:1],,,,
,,,,
{16}3b,,,3b,
,,3b,,
,,,,
3,,3,,
{16}7b,,,7b,
,,7b,,
,,,,
7,,7,,
{16}4b,,,4b,
,,4b,,
,,,,
4,,4,,
{16}8b,,,8b,
,,8b,,
,,,,
8,,8,,
{16}1h[16:4],,,7,
,,8,,
,,6,,
6,,,,
{16}8h[16:4],,,2,
,,1,,
,,3,,
3,,,,
{8}7,7,56,,
2,2,34,,
{8}7,7,56,7,
2,2,34,2,
{16}18,,,1,
8,,81,,
27,,,,
27,,,,
{4}1>5[2:1],5,6,7,
{4}8p1[2:1],4,3,2,
{8}3,4,1,1,
6,5,8,8,
{4}38,27,16,36,
{4}8<4[2:1],4,3,2,
{4}1q8[2:1],5,6,7,
{4}56,,34,27,
{16}8,,,1,
,,7,,
36,,,,
27,,,,
{4}8<4[8:2],4,3q2[4:1],,
{4}8p1[8:2],2,3^6[8:1],,
{8}6,5,8,8,
3,4,1,1,
{4}61,72,83,63,
{4}1>5[8:2],5,6p7[4:1],,
{4}1q8[8:2],7,6^3[8:1],,
{4}43,,65,72,
{16}1,,,8,
,,2,,
63,,,,
72,,,,
{16}4b-7[8:1],,,,
,,,,
{16}3,,,2,
,,1,,
{16}8b-6[8:1],,,,
2b-6[8:1],,,,
5>6[4:4],,,,
,,,,
{8},,,,
,,,,
{4}5h[4:3]/4,,4,,
{4}4h[4:3]/5,,3,,
{4}5h[4:3]/3,,4,{8},,
{4}4h[4:2],,{8}7,,,,
{8}6,,5h[4:3],,
{16}1,,,1,
,,2,,
{8}4,,4h[4:3],,
{16}8,,,8,
,,7b,,
{8}7b,,4,5h[8:1],
{16},,,6,
,,25,,
{8}7,,6,4h[8:1],
{16},,,3,
,,47,,
{16}48,,,,
15,,,,
2b,,,2b/6b,
,,1b,,
&inote_5=(139){1},
{2}5h[4:3]/4,7,4h[4:3]/5,2,
{4}5h[4:3]/4,,7,3,
4h[4:3]/5,,2,5,
{8}8b<1[2:3]/4b,,,,
,,,,
{8},,,,
,,,2b,
{8}2b,2,5h[4:2],4,
{16}4,,,3,
,,2,,
{8}2,6,4h[4:2],5,
{16}5,,,6,
,,7,,
{16}1,,2,1,
2,,7,8,
16,,,34,
,,12,,
{8}1-6[8:1],,,,
{16}3-6[8:1],6,,,
,,,,
{16}8,,,4,
8-4[8:1],,3,,
2,,,,
15,,,,
{8}7h[4:1]/8h[4:1],,,,
1h[4:1],,3^6[4:1],,
{8}2>7[4:1],,,,
{16}8,,,7,
,,78,,
{8}8-3[8:1],,,,
{16}6-3[8:1],3,,,
,,,,
{16}1,,,5,
1-5[8:1],,6,,
7,,,,
84,,,,
{8}2h[4:1]/1h[4:1],,,,
8h[4:1],,6p3[4:1],,
{8}7<2[4:1],,,,
{16}1h[8:1],,,1h[8:1],
,,1,,
{8}28,37,46,,
{16}4-8[16:2],8,,,
,,,,
{8}5q4[4:1],,4p5[4:1],,
,,,,
{8}1h[4:1],,3h[4:1],,
4>1[8:1],,,,
{8}78,78,7h[8:1]/8h[8:1],,
{16}7,8,,1,
8,,8,,
{8}71,62,53,,
{16}5-1[16:2],1,,,
,,,,
{8}4pp4[4:1],,4qq4[4:1],,
,,,,
{8}6^3[8:1],,2p7[4:1],,
,,5<4[2:1],,
{8}4,,,,
,,1,28,
{16}3bv1[4:1],,,2b,
,,5b,,
,,,,
17,,26,,
{16}5bv7[4:1],,,6b,
,,1b,,
,,,,
12,,38,,
{16}7bv1[4:1],,,8b/4b,
,,2b,,
,,4,,
35,,26,,
{16}1bv7[4:1],,,4b/8b,
,,6b^3[8:1],,
,,,,
,,,,
{16}1h[16:3]/8,,,8,
2,,3^8[8:1]/7,,
,,6,,
6,,,,
{16}8h[16:3]/1,,,1,
7,,6^1[8:1]/2,,
,,3,,
3,,,,
{8}3>6[4:1],,6q3[4:1],,
3v5[4:1],,4,,
{16}8,,,7,
,,6,,
16,,1,,
2,1,2,,
{16}38,,,2,
1,,81,,
7,8,7,,
6/1-5[8:1],,,,
{16}1<4[8:3],,,,
5,,3,3,
,,,,
3v8[8:1],,2,,
{16}3>6[8:3],,,,
5,,4,4,
,,,,
3,,4,,
{8}2^5[8:1]/5,,8,,
8^5[8:1],5,4,3,
{8}3-6[4:1],,6q2[4:1],,
,,8-4[8:1],,
{16}8>5[8:3],,,,
4,,6,6,
,,,,
6v1[8:1],,7,,
{16}6<3[8:3],,,,
4,,5,5,
,,,,
6,,5,,
{8}6^3[8:1]/4,,1,,
2^7[8:1],,5,,
{8}6-3[4:1],,3-7[4:1],,
1,,2-6[8:1],7,
{16}2<5[4:1],,,,
5V36[4:1],,2,2,
,,2,,
1-5[8:1],,,,
{16}1/7<2[4:1],,,,
2-6[8:1],,8,8,
,,8,,
1,,,,
{16}1V38[4:1],,,7,
,,5,,
5V72[4:1],,,1,
,,3,,
{8}3V14[4:1],,4V26[4:1],,
6-3[8:1],,7-3[8:1],,
{16}7>4[4:1]/2,,,,
4V63[4:1],,7,7,
,,7,,
8-4[8:1],,,,
{16}8/2>7[4:1],,,,
7-3[8:1],,1,1,
,,1,,
8,,,,
{8}4-1[8:1]/8h[4:1],,,,
5-8[8:1],,,,
{16}1V72[4:1],,,7,
,,6,,
5-8[8:1],,,,
4,,,,
{16}2h[4:1]/4b-7[8:1],,,,
,,,,
{4}6bV85[4:1],5bV73[4:1],
{16}3b-6[8:1],,,2b,
,,1b>8[1:1],,
8,,,,
,,,,
{8},,,,
,,,,
{4}5h[4:3]/4,,4,7,
{4}4h[4:3]/5,,3,1,
{4}5h[4:3]/3,,4,{8}7,5,
{4}4h[4:2],3,{8}2,4,8,3,
{8}6,3,5h[4:3],4,
{16}7,,,1,
,,2,,
{8}4,5,4h[4:3],6,
{16}2,,,8,
,,7b,,
{8}7b,7,4,5h[8:1],
{16}2,5,,6,
,,25,,
{8}7,4,6,4h[8:1],
{16}7,4,,3,
,,47,,
{16}48,,2,1,
3,,3,4,
2b,,,2b/6b-2[16:1],
,,1b,,
