&title=Infinity Heaven
&artist=HyuN
&first=0.95
&des=H∞shin∞
&des_5=H∞shin∞
&lv_5=14
&inote_5=(160)
{16}7bh[4:3],,,6,,,5h[2:1],,,,,,,,,,6h[4:3],,,5,,,4h[2:1],,,,,,,,,,5h[4:3],,,4,,,3h[2:1],,,,,,,,,,
{16}4h[2:1],,,3,,,2,,1h[2:1],,4,,5,,6,,
{16}7h[4:3],,,8,,,1h[8:5],,,,,,,,,,6h[8:3],,,5,,,4,,3h[2:1],,2,,1,,8,,
{16}7h[2:1],,,6,,,4,,3h[2:1],,,5,,,7,,8h[2:1],,,1,,,2,,3v8[8:1],,7,,6,,5,,
{16}4b,,,2,1q5[8:1],,8,,7h[4:1]/A1,,,,4,,3,,2,,,7,1v6[8:1],,8,,1q5[8:1]/3h[8:1],,,,A1,,,,
{16}5x,,,7,8p4[8:1],,1,,2h[4:1]/A8,,,,5,,6,,7,,,2,8v3[8:1],,1,,8p4[8:1]/6h[8:1],,,,A8,,,,
{16}2,,,1,7p3[8:1],,6,,5h[4:1]/A7,,,,2,,,,
{16}7,,,8,2q6[8:1],,3,,4h[4:1]/A2,,,,7,,1,8,
{4}2bV85[2:1]/7bV14b[2:1],,,,3,3,7,
{16}7,,1,8,
{16}2b,3,4,5,2V83[4:1],3,4,5,,,E5,,E6,,E7,,
{16}8,7,6,5,8V27[4:1],7,6,5,,,E5,,E4,,E3,,
{16}1,2,3,4,1V72[4:1],2,3,4,,,E3,,B4,,5x<4[4:3],,
{8}C,E6,E7,E8,E1,E2,E3,E4,
{16}8,7,6,5,4>8[4:1]/8,7,6,5,,,6,,5,,4,,
{16}1,2,3,4,1/5<1[4:1],2,3,4,,,3,,4,,5,,
{16}4,3,2,1,8<4[4:1]/4,3,2,1,,,2,,1,,8,,
{8}7/5,7/4,7/3,7/2,
{16}2,1,3,8,
{32}4,5,6,7,8,1,2,3,
{16}4/8b-4[8:1],,,6,8,,7<4[8:1],,,,7,,3,,2,,
{16}1-5[8:1],,,7,1,,8<5[8:1],,,,8,,4,,3,,
{16}2-6[8:1],,,8,2,,1<6[8:1],,,,1,,5,,4,,
{16}3-6[8:1],,,1,3,,8,,4-8[8:1],,5-7[8:1],,4,,5,,
{16}1-5[8:1],,,3,1,,2>5[8:1],,,,2,,6,,7,,
{16}8-4[8:1],,,2,8,,1>4[8:1],,,,1,,5,,6,,
{16}7-3[8:1],,,1,7,,8>3[8:1],,,,8,,4,,5,,
{8}2/4,2/5,2/6,2/7,
{16}7,8,6,1,
{32}5,4,3,2,1,8,7,6,
{16}5x/2bx-6[8:1],,,8,2,,1<4[4:1],,5,,1,,B6/E6/B5,,,,
{16}3x-7[8:1],,,8,3,,1<3[4:1],,5x,,1,,B5/E5/B4,,,,
{16}5x/2x-6[8:1],,,8,2,,1-7<5-3[4:1],,5,,1,,B6/E6/B5,,,,
{16}4x/1x-5[8:1],,,7,1,,8<4[4:1],,4x,,8,,3,,2,,
{16}4x/7x-3[8:1],,,1,7,,8>5[4:1],,4,,8,,B3/E4/B4,,,,
{16}6x-2[8:1],,,1,6,,8>6[4:1],,4x,,8,,B4/E5/B5,,,,
{16}4x/7x-3[8:1],,,1,7,,8x-2>4-6[4:1],,4,,8,,B3/E4/B4,,,,
{16}5x/8x-4[8:1],,,2,8x,,1>7[4:1],,5x,,1,,B4/E5f/B5,,,,
{16}1bx-5[8:1]/8bx,,,3,1<2[8:3],,2,,1-5[8:1],,,,1,,,,
{16}2x/1x-5[8:1],,,7,1>7[8:3],,8,,1x-5[8:1],,,,1,,,,
{16}8x-4[8:1]/1x,,,6,8>7[8:3],,7,,8-4[8:1],,,,8,,,,
{16}7x/8x-4[8:1],,,2,8<2[8:3],,1,,8x-4[8:1],,,,8,,,,
{8}7/E1,7,7/E2,7,7/E3,7,7/E4,7,3/E5,3,3/E6,3,3/E7,3,3/E8,3,
{8}5,5,4/6,4/6,3/7,3/7,2/8,2/8,1,2/4,3/5,4/6,
{16}7,5,6,4,
{32}5,4,3,2,1,8,7,6,
{4}2b-6<7-3>2[2:7]/5b,,,,E5h[8:1],,,,E5h[8:1],,,,E5h[8:1],,,,
{4}7-3>2-6<7b[2:7]/E1h[8:1],,,,E1h[8:1],,,,E1h[8:1],,,,E1h[8:1],,,,
{16}E2,E3,E4,E5,E6,E7,E8,E1,5x,4,3,2,1,8,7,6,E5,E6,E7,E8,E1,E2,E3,E4,8x,7,6,5,4x,3,2,1,E4,E3,E2,E1,E8,E7,E6,E5,1x,2,3,4,5,6,7,8,E6,E7,E8,E1,E2,E3,E4,E5,8x,1,2,3,4x,5,6,7,
{16}1,2,3,4,2,3,4,5,1x,8,7,6,8,7,6,5,2,3,4,5,6/1,7,8,1,6/2x,7,8,1,2/5x,3,4,5,
{16}6/2,1,8,7,1,8,7,6,8x,7,6,5,7,6,5,4,3s7[2:1],,,,,,,,,,,,,,1,1,
{4}2bp4s8[1:1]/8bq6z2[1:1],,,,,,1h[4:1],5h[4:1],
{16}2b,3,4,5,6/1,7,8,1,5/2,4,3,2,1/4,8,7,6,5/1,8,7,6,5/8-4[8:1],4,3,2,1/8>3[8:1],,,,8<5[8:1],,,,
{16}8/4,3,2,1,8/4x>1[8:1],7,6,5,4x/7q5[4:1],,,8x,,,1x,,
{16}2,1,8,7,6/1-5[8:1],5,4,3,1>4[8:1]/2,,,,1<6[8:1]/7,,,,
{16}1b/5b,4,3,2,1/5x>2[8:1],8,7,6,5x/8-4[8:1],,,,1/8>3[8:1],,,,8b/4bx,5,6,7,8/4x<7[8:1],1,2,3,1-5[8:1]/4x,,,,1/8,,,,
{16}4b/8b,7,6,5,7,6,5,4,8b,1,2,3,1,2,3,4,
{16}6b,5,7,4,1,2,8,3,
{24}5bx,6,7,8,1,2,3bx/6bx,7,8,1,2,3,
{16}7b,6,5,4,3/8,2,1,8,4/7,5,6,7,8/5,1,2,3,4b/8b,1,2,3,4/1-5[8:1],5,6,7,8b/1b<6[8:1],,,,1b>4[8:1],,,,1b/5bw1[8:1],,,,5b/Cf,,,,
{16}3bx/E5f,,,3bx/E6f,,,3bx/E7f,,8bx/D5f,,,8bx/D4f,,,8bx/D3f,,1bx/Cf,,,7bx/Cf,,,3bx/Cf,,
{16}8bx/4bx,3,2,1,8/4x>1[8:1],7,6,5,4x/8-4[8:1],,,,1x/8>3[8:1],,,,8b/4bx,5,6,7,8/4x<7[8:1],1,2,3,1-5[8:1]/4x,,,,1/8,,,,
{16}3b,4,2,5,1,6,8,7,5b,6,4,7,3,8,2,1,3b,3,1,1,8,8,6,6,
{24}2,1,8,7,6,5,
{32}4/1-5b[8:1],8,7,6,5q7[8:25],4,3,2,
{4}1q3[4:12]/Cf,,,,,,,,,,,,,,,,
{8}A6,A5,A4,A3,,,,,D6,D5,D4,D3,,,,,E6,E5,E4,E3,,,,,B6,B5,B4,B3,,,,,
{8}7>2[2:1],6,5,4h[8:3],,,,,6<2[2:1],5,4,3h[8:3],,,,,5<1[2:1],4,3,2h[8:3],,,,,4<8[2:1],3,2,1h[8:3],,,,,
{8}2<7[2:1],3,4,5h[8:3],,,,,3>7[2:1],4,5,6h[8:3],,,,,
{24}7h[4:11]/E3,B3,B4,,,,,,,,,,,,,,,,,,,,,,5x-8>1-4[4:6],
E
