&title=东北最强音(AI remix)
&artist=AI
&first=0.007
&des=LHG
&lv_5=13+
&des_5=LHG
&inote_5=
(128){4},,,,{2}B6/E6/B3/E4,
B5`B4,
Ch[4:1],{16}1h[16:3],,,7,2,6,3,5,
{1}4bh[8:11],
{24},,,,,,,,,8>6[2:1],7,6,{8}5/2,8,,,{1}1b<5>1[1:1],
{4}1b>5[2:1],,,C,
{16}5/3,5/3h[16:3],,,{8}C,{16}6/4,4/6h[16:3],,,{8}C,{16}2/4,4/2h[16:3],{48},,,,,,E4,
B4,,,,,{8}1x,{16},7x/5>6[16:23],,,{2}5x/3h[8:13],
{8},,,,,,,,,4,
2/5h[24:1],1,{4}2-7[8:1],2/4,
{2}8-5[8:1]*v7[8:1],{4}3xs7[4:1],7s3[4:1],
{2}8h[4:1],{4}6>3[8:1],6/8,
{8}2>5[8:1],6,,7,{16}8v5[8:1],,,1,,,{8}2,
{4}3-8[8:1],3/5,{8}6-3[8:1],7,,8,
1-6[8:1],2,,3,{4}4>7[4:1],7V13[4:1],
{2}5h[4:1],{4}6>5v4>3b[4:1],2,
1q5[8:1],8/1,{2}7h[8:5]/3h[8:5],
{16},,,,6b/2b-5[8:1],3bh,,,{4}2/6,{16}7>2<7[2:1],,,3,
{4}3,3pp6qq3[4:3],,,{2}8x-6[8:1],
{4}4<6[8:1],{16}2,,,3,
{8}3<5[8:1],5,,6,{4}6z2[4:1],2z6[4:1],
{2}1h[4:1],{8}2qq3[8:3],3,{4}4,
{8}5-3[8:1],6h[4:1],{16},,,,2xh[8:3]/B4/E5,,,B2/E3,,,{8}B8/E8,
{4}B5/E6/1-3[8:1],1/6,4x<7[8:1]/2xq4[4:1],4x>1[16:3],
{2}8x<5[8:1]*>3[8:1],6xh[2:5]/2xh[8:5],
{16},,,,3,3,,,{2}4bh[8:11],
{4},,,,5-1b[12:1],
5b/2,4q5[4:1],6,
{16}7-2[8:1],,,5,,,{8}4,{2}3-8[8:1]*v6[8:1],
{8}5-7[8:1],{16}E5,B4,,E3/B2,,E2,{2}8x-4[8:1]*-3[8:1],
{8}2v5[8:1],6v1[8:1],,,{2}3h[8:5],
{24},,,7,6,5,{8}8/4h[4:1],2,{2}8b>4[4:1],
8b>4[4:1],{8}1b,1b,2b/E5/B5,3b/E6/B6,
{2}E7/B7/4b>1[8:1]*p8[8:1],{4}8pp7[4:1]/7<4[8:1],7>4[8:3],
{8},,,5,{16}6-2[8:1],,,7,,,{8}8,
{2}8-4[8:1]/3-1[8:1],{16}2/5h[16:3],,,3,,,{8}4/6,
{16}5h[16:3],,,6,,,{8}7/4,6/5h[8:1],7,5/6h[8:1],4,
7/3,{16}E3,B3,,E2/B1,,E1,{4}5xpp5[4:1],5qq5[4:1],
{2}3h[4:1],{4}6/4-8[8:1],2/4xqq4[8:3]*pp4[8:3],
,,{2}7h[8:13]/3h[1:1],
{16},,,,,,,,,,,,,,,,,,5,
6,{8}4>5[2:3],5/3,{2}4/2xh[2:3],
{8},,,,,,,,,6x/B4f/E5,
{16},E7f/B6/2xq4[16:11],,,{2}2x/8xh[4:7],
{8},,,5h[2:1],,,,,{4}4h[8:1],
3h[8:1],{2}4/2xh[2:1],
{8},5x/B1f/E1,{16},3x/B5f/E5,,,{2}7xh[4:3],
{16},,,,4,5,{8}3-7b[8:1],{2}2xh[2:1],
{8},8x/B4f/E4f,{16},1x/E6f/D6,,,{2}4xh[8:5]/7<1[8:5],
{8},,5,5,4x/8b,7,6,5x/1b,
2,3,4x/7b,6,5,2b/4x,3,4,
5b/7x,8,4x/2b,1,8bx-5[8:1],1,2,3bx-8[8:1],
4,5,6bx-1[8:1],5,4,3bx-6[8:1],2,1,
8bx-5[8:1],1,2bx-5b[12:1],3,{2}2b/6,
{8},,,,,,,,B5/B6/E6,
B3/E3/B2,{16}E7,E4,B5,B1,{4}Cf,{8}2/8,{16}2,3,
{8}5/4>1[8:1],,,7,{16}7,8,,8,6h[16:1],2,5h[16:1],3,
,,2,4,{8}1>4[12:1],2/6,{16}1b,,,7,{8}5,8h[16:1],
{16}4h[16:3],,,5,{8}3,{16}2,4h[16:1],,2,{8}4h[16:1],{16}B2,B3,E7,E6,
2,2,5,3,{8}6>8b[2:1],7/3,{2}Cf,
{12}2,2,7,1>6b[2:1],5,2,{2}Cf,
{8}C,B5f/E6,{4}E2f/B2,{2}Cf/7<4b[16:3],
Cf/1>4[16:3],Cf/5<8b[16:3],
Cf/4>1[16:3],{16}6,6h[16:3],,,{8}E1/B8,{16}3,3h[16:3],
,,{8}B2/B1,{16}5,5h[16:3],{32},,,,B3,E4,,,{8}8x/2x,{16}6,6x/4x>5[16:19],,3,
{4}4x/2xh[2:1],{8},,,,3h[16:1],1,
3h[16:1],1,3h[16:1],1,B7/B6/B3/B2/C,,,B5/E5/B4/D5,
,,{4}E8/E4/C,{8},A6/A2,,,{4}C,
{8}B7/C/B3,{16}A8,E8,{2}E7f/1x<2[1:1],
{24},,,,,,,,,,,,,,,,,,5x,6x,7x,1,2,3,
5x,6x,7x,2,3,4,6x,5x,6x,4,5,4,6x,5x,7x,4,5,3,{4}7bh[8:13],
{8},,,,,,,,,,4<2b[4:1],
3,{4}4/6,5p4[4:1],
3/5,{16}2-7[8:1],,,4,{8}2,5,6-1[8:1]*v3[8:1],7/5,
{4}6,{8}8/4-2[8:1],{16}E5,B5,,E7/B7,,E8,1x-5[8:1],,,8,
{8}1,6,7v4[8:1],3v8[8:1],{4}7,6h[2:1],
{24},,,,,,,,,4,5,4,{8}3/6h[4:1],2,{4}1b<5[4:1],
,1b<5[4:1],{8},,,8b,
7b/E5/B4,6b/E4/B3,{4}E3/B2/5b<8[8:1]*>2[8:1],5b,1qq2[4:1]/2>5[8:1],
{8}2<5[8:3],,,,,4,{16}3-7[8:1],,,2,
{8}3,1,{4}1q5[8:1]/6<8[8:1],1/6,{8}7/4h[8:1],{16}6-8[8:1],5,
{8}7,6/4,{16}2h[16:3],,,3,{8}1,2/4,3/4h[8:1],2,
4/3h[8:1],{16}5,5,{8}2h[16:5],{16}E7,B6,,E8/B8,,E1,{8}3xqq4[4:1],2,
{4}3/5pp4[4:1],5>2[8:1],{8},,5-1[8:1]/3-7[8:1],4,
{4}3x/5xpp6b[16:5]*qq4b[16:5],,,3xh[2:3]/6b-2b[7.5##0.1562]*-3[4.6875##2.5781],
{16},,,,,2xh[16:21],{1},{4},,,{8},{4}8bh[4:5],
{1},{4},{16}6b/4b,
,,4,
{8}3-8[8:1],5h[8:1],{16}3,,,6h[8:1],,1,{8}5h[8:1],{16}2,4h[16:3],,,3,
3,5,2h[16:3],,,5,5,4,6,3,7,2-5[12:1],,,8,
{8}2/8,7,{16}6h[16:3],,,5,7,4,6,6,B2,B8,3,5,
B1,B7,4,6,1h,7,3h,5,1q5b[12:1],5,3h,7,{48}1bh,D7/A6,B6/E6,B4/E5,{6}D4/A4,
E
