&title=Yoyoyoyo
&artist=DCWH
&first=0.02
&des=Yo-1C
&lv_6=14
&inote_6=(100){1},
{1},
{8}E6,E5,E4,,B6,E5,B3,,
{8}E6,E5,E4,,B6,E5,B3,,
{8}A6,E5,A3,,E7,E5,E3,,
{8}A6,E5,A3,,E7,E5,E3,,
{24}3/4-6[12:1],,,3,,,3h[4:1],,,,,,4,,3,4,,,3-1[12:1]/5,,,,,,
{24}6-4[12:1],,,6,,,7h[4:1],,,,,,5,,6,5,,,6-8[12:1]/4,,,,,,
{24}6/3-5[12:1],,,3,,,2h[4:1],,,,,,4,,3,4,,4,2-8[12:1],,,,,,
{24}5-3[12:1],,,5,,,6h[4:1],,,,,,5,,6,5,,5,8b,,,8b,,,
{24}4h[8:1]/3,,,2,,,3h[8:1]/4-2[12:1],,,1,,,5-7[12:1],,,,,,8,,,8,,6,
{24}6/5-7[12:1],,,8,,,4-8[32:3],,,1,,,3,,,2,,,6/4,,,,,,
{24}5h[8:1]/6,,,7,,,6h[8:1]/5-7[12:1],,,8,,,4-2[12:1],,,,,,1,,,1,,3,
{24}3/4-2[12:1],,,1,,,5-1[32:3],,,8,,,6,,,7,,,3/5,,,,,,
{24}4h[8:1]/3,,,1,,,3h[8:1]/4-1[12:1],,,1,,,5-8[12:1],,,,,,7,,,7,,6,
{24}6/5-8-5[32:5],,,8,,,4-1[32:3],,,1,,,3,,,2,,,7/4,,,,,,
{24}5h[8:1]/6,,,8,,,6h[8:1]/5-8[12:1],,,8,,,4-1[12:1],,,,,,2,,,2,,3,
{24}3/4-1-4[32:5],,,1,,,5-8[32:3],,,8,,,6,,,7,,,3-8[32:3]/5,,4/1,4-7-4[8:19]/1,,,
{4}3b,,B1h[8:1]/E1,,
{4}B2h[8:1]/E3,,B1h[8:1]/E1,,
{4}B2h[8:1]/E3,,B1h[8:1]/E1,,
{4}B6hf[1:1],B3hf[8:7],B5hf[4:3],B4hf[8:5],
{8},,,,8xv1[12:1]*v5[12:1]/E3,1x>6[8:1]/E7,,,
{24}7,,7,8,,6,
{48}6h[8:1]/5,,,,,,7,8,1,2,3,4,
{24}5-8[12:1]/7h[8:1],,,8,,,5/4,,2,1,,3,
{24}4,,4,5,,5,6,,6,7-4-7[32:5],,8x/5x,,,,3b-8[12:1],,,2,,,,,,
{24}6,,6,5,,7,
{48}7h[8:1]/8,,,,,,1,2,3,4,5,6,
{24}8,,,1/2,,,3/4,,2,1,,3,
{24}4/3-8[16:1],,,2,,4,3/4-7[16:1],,,5,,3,3-8-3[32:5]/4,,,,,,7,,,5,,,
{24}1x/E7h[24:1],,1,8,,3,4,,,2/E6,,,1/E7h[24:1],,1,8,,3,4,,,2/E6,,,
{24}1/E7h[24:1],,1,8,,2,4,,,E7hf[8:1]/3x,,,1bs5[8:1],,,,,,6,,,6,,,
{24}4x/E7h[24:1],,4,5,,2,1,,,3/E6,,,4/E7h[24:1],,4,5,,2,1,,,3/E6,,,
{24}7x/4x,,6,6/5,,3,3/4,,7,7/5,,,2b-5[4:1]/4b,,,,,,E7/B6,,,,,,
{8},E8/B7,2-5[4:1]/E1/B8,,E7/B6,E8/B7,1x-6-1[4:1],,
{8},E5/B5,E4/B4,E3/B3,1x/2x-5[4:1],,1,,
{8},1,2-5-2[4:1]/8,,1,1,1,,
{8}1/2,2/3,3-8<1[4:7]/4,4/5,B6h[4:1],,,,
{4}E7h[8:1]/E6h[4:1],,E7h[8:1]/E6h[4:1],,
{4}E6h[8:1]/E5h[4:1],,6x-1>8[4:6]/E3h[8:1]/E4h[4:1],,
{4}E3h[8:1]/E4h[4:1],,E3h[8:1]/E4h[4:1],,
{4}E4h[8:1]/E5h[4:1],,E8h[4:1]/5x,4,
{8}5/E2h[8:1]/E3h[4:1],5,6,,E8h[4:1]/4,,3,,
{8}E2h[8:1]/E3h[4:1]/6,6,7,,E8h[8:1]/E7h[4:1]/B7/4,4,3,,
{8}E2h[8:1]/E3h[4:1]/B2/6,6,7,,E8h[8:1]/E7h[4:1]/B7/3,3,2,,
{8}E2h[8:1]/E3h[4:1]/B2/7,7,8,,5b/E1/B8,5b/E3/B3,5b-1[12:1]*v8[12:1]/E7/B6,5b/E4/B4,
{24}5bqq5[32:5],,,,,,7,,,7,,,8/6,,1,3/1,,6,
{48}6h[8:1]/4,,,,,,7-4-7[32:5],8,1,2,3,4,
{24}5/8,,,7/3,,,1,,1,8,,2,4,,4,5,,5,7,,7,8-3-8[32:5],,2/5,
{24},,,4b-7[12:1],,,6,,,,,,2,,3,5/3,,1,
{48}1/7h[8:1],,,,,,6,5,4,3,2,1,
{24}6/8,,,5/4,,,1/2,,3,3/8,,6,6-1[16:1]/5,,,7/4,,5,6/5-2[16:1],,,7/4,,6,
{24}6-1-6[32:5]/5,,,,,,2/6,,,4,,,E3h[24:1]/8x/B3,,6,5/6,,3,3/4,,,6/E2,,,
{24}8/E3h[24:1]/B3,,6,6/5,,3,3/4,,,6/E2,,,8/E3h[24:1]/B3,,6,6/4,,3,3/5,,,8/E3hf[8:1]/B3/E4h[8:1],,,
{24}1bs5[8:1],,,,,,2,,,2,,,E3h[24:1]/5x/B2,,7,7/8,,6,6/5,,,7/E4,,,
{24}5/E3h[24:1]/B2,,7,7/8,,6,6/5,,,7x/E4,,,1/8,,3,2/4,,6,7/5,,2/3,1h[12:1]/4h[12:1],,,
{48}8b/5b,7,6,5,4,3,2,1,8,7,6,5,4,3,2,1,8,7,6,5,4,3,2,1,8xb,1,2,3,4,5,6,7,8,1,2,3,4,5,6,7,8,1,2,3,4,5,6,7,
{24}8/1q4[8:3],,,1/8p5[4:1],,,1/8,,,,,,,,,,,,4/5-8-5[4:1],,3,4,,4,
{8}2,,4-1[12:1],,,6,7/5-8-5[4:1],,
{24}2,,,3,,,4,,,,,,5/4,,,5/6,,,7/4,,6/5,5/6,,,
{1}7bpp8<1[8:3]/B4h[8:1]/E5h[8:1]/B5h[8:1],
E
