&title=IZANA
&artist=t+pazolite vs P*Light
&first=-0.47
&des_1=Colorful skin
&des_2=Colorful skin
&des_3=Colorful skin
&des_4=Colorful skin
&des_5=Colorful skin
&lv_5=14.9?
&des_6=Colorful skin
&des_7=Colorful skin
&des=Colorful skin
&inote_5=(111){4},8xh[1:1],{8},7,{4}7p1[32:5],
,1xh[1:1],{16}2,,,2,{4}2q8[32:5],
,8xh[8:3],{8},7,{4}7<3[4:1],
{16}3q8[4:1],,,2,{4}2h[4:1],{8},,1b-5[16:1],2bw6[16:1],
1b,2b,7x/5xV74b[8:1],{32}3,4V62[0.473##0.2027],{16}3,{8}5/2,2b,{16}1>4[16:1],1,8/2,1,
{48}1/5,6,7,8,,,{8}2/1,{16}7/8-4[16:1],{32}6,5,{16}6,7/1,8/2,2,3,3,7,{32}6,5,{16}6,4/7-1[16:1],
,3/5,6/4,7/5,{32}E6f,,,E5f,,,{16}E4f,6/4,6,5/3,3,2/4v3[8:1],4,5/3V51b[8:1],3,
{8}4/6,5b,{16}8-5[16:1],8,,,4/8-3[16:1],3,2-6[16:1],1,{8}8-5[16:1],2,
8,6/4,2x/4xV25b[8:1],{32}6,5V37[0.473##0.2027],{16}6,{8}4/7,7b,{16}8<5[16:1],8,7/1,8,
{48}8/4,3,2,1,,,{8}7/8,{16}2/1-5[16:1],{32}3,4,{16}3,2/8,1/7,7,6,6,2,{32}3,4,{16}3,5/2-8[16:1],
,6/4,3/5,2/4,5,6,{32}7,8,7,8,{16}6x/1x,2x/5x,{8}4x/3x,{16}4,3,{32}2,1,2,1,
{16}3x/8x,4x/7x,{8}5x/6x,{16}5/3,2,4/6,7,5/2,1,4/7,8,6/2pp4[32:3],{32}4,4V25[8:1],{16}4,5/3,
{4}6/2,{8}6h[8:1],{16}4,3/5h[8:1],,3,{8}2b/Cf,3h[8:1],{16}5,6/4h[8:1],
,6,{8}7b/Cf,6h[8:1],{16}4,3/5h[8:1],,3,{8}2b/Cf,3h[8:1],{16}5,6,
{4}6/Cfh[8:1],{16}4/5,6,6,6,4/5,3,3,3,6/4,7,7,7,
5/3,2,2,2,{32}8,7,6,5,{16}4,4,7-4[16:1],4-8[16:1],8-3[16:1],3>5[32:5],{4}A2h[16:1]/D2h[8:1]/A1h[16:3]/E2h[4:1],
{8},3b,{64}4h[16:1]/7x>3[32:3],6x,{32}5x,,,{8}4h[16:1],7/4h[16:1],{32}4xh[16:1],5,6,7,{8}4h[16:1]/8pp2[32:3],4h[16:1],
4h[16:1],{32}1/4h[16:1],8,7,6,{8}5/4h[16:1],6/5h[16:1],{32}7-3[16:1],8,{16}7,{8}6/1-5[16:1],7b-5[16:1],1b-3[16:1],
7b,1b,{64}5h[16:1]/2x<6[32:3],3x,{32}4x,,,{8}5h[16:1],2/5h[16:1],{32}5xh[16:1],4,3,2,{8}5h[16:1]/1qq7[32:3],5h[16:1],
5h[16:1],{32}8/5h[16:1],1,2,3,{8}4/5h[8:3],{16}3,3,,2,{8}2,{16}4/3,5,3-8[16:1]/4-7[16:1],2,
{8}4/3,4b/3b,{64}5h[16:1]/2xq7[32:3],3x,{32}4x,,,{8}5h[16:1],2/5h[16:1],{32}8/5h[16:1],1,2,3,{8}5h[16:1]/4v3[32:3],5h[16:1],
4/5h[16:1],5h[16:1],{64}4h[16:1]/7xp2[32:3],6x,{32}5x,,,{8}4h[16:1],4h[16:1],{32}1,8,7,6,5h[16:1]/1h[16:1],,,6h[16:1]/2h[16:1],,,{16}3h[16:1]/7h[16:1],
{32},4h[32:3]/8h[32:3],{64},,,,,3/7,2/6,5h[64:5]/1h[64:5],,,,,,,,,,,,,{32}6,8,{16}6,{32}6,4,{16}6,{32}6,1,{16}6,{32}6,3,{16}6,{32}6,2,{16}6,
{32}3,5,{16}3,{32}3,7,{16}3,{32}3,4,2,5,1,6,8,7,4,5,3,6,2,7,1,8,1,8,2,7,3,6,4,5,
{8}5x-8[16:1]/4x-1[16:1],7/2,{4}5b/4b,{8},1,{4}1>4[4:3],
,6,{16}7,,,8,{4}8<5[4:3],
,2,{8},1,{4}1>4[4:3],
,6,7,8<5[4:3],
,2b,{8},1,{4}1h[2:1],
,2>6[4:1],{16}6p1[32:7],,,7,{4}7h[4:1],
,8h[8:3],{8},7,{4}7,
{16}2q7[16:3],,,8,{4}8h[4:3],,,{64}1-5[16:1],
2,{32}3h[32:7],,,,,,,{8}1,3,{16}3,6,{8}3,3,3,
{16}4,5,{8}6/4,6,6,{16}6,3,{8}6,6,6,
{16}5,3,2/5,2/5,4,6,7/4,7/4,5,2,5/1,5/1,4,7,8/4,8/4,
7/3,7/3,6/2,6/2,1/8,2,8/1,7,{32}2,4,3,7,5,6,,,{8}3/8,{16}7-5[16:1]/4-8[16:1],7/4,
1/2,3/8,{8}7/4,4/7,{16}6/3,{32}7,8,{16}7,6/3,{32}2pp4[8:1],1,{16}2,6/4>1[8:1],3/5,{32}4/2,5,6,7,
{8}8,{32}5,6,7,8,{8}5/1,{16}3/6,{32}2,1,{16}2,3/6,{32}7qq5[8:1],8,{16}7,3/5<8[8:1],6/4,{32}7/5,4,3,2,
{8}1,{32}4,3,2,1,{8}4/8,{16}4/2,1s5[8:1],7/5,8,,5/1,,6h[16:3],,,{8}3,
5/6,{16}7/4,{32}6,5,{16}6,7,2/5,{32}3,4,{16}3,2,7/4V26[8:1],{32}6,5,{16}6-1[16:1],8/3,
{8}5b/4,8b,{16}6/8,{32}3,4,{16}3,1/7,{32}2v8[8:1],5,{16}2,6/8V24[32:3],1/7,{32}2/8,7,6,5,{8}4,
{32}8,7,6,5,{8}4/8,6/4,{16}3/1,{32}6,5,{16}6,8/2,{32}7v1[8:1],4,{16}7,3/1V75[32:3],8/2,{32}7/1,2,3,4,
{8}5,{32}1,2,3,4,{8}5/1,{16}5/7,8z4[8:1],2/4,1,,4/8,,3,,,{8}5h[8:1],
2,{16}2/5,1,7/4,8,2/5,1,7/4,8,5/2,{32}1,1,{16}1-5b[16:1],2/8,
{8}7/3,1,2x/4xV25b[8:1],{32}6,5V37[0.473##0.2027],{16}7,{8}4/8,7b,{16}8<5[16:1],8,1/7-3[16:1],6/2,
{48}8/4,3,2,1,,,{8}7/8,{16}2/1-5[16:1],{32}3,4,{16}3,2/8,1/7,7,6,6,2,{32}3,4,{16}3,5/2-8[16:1],
,6/4,3/5,2/4,{32}E4f,,,E5f,,,{16}E6f,{32}3,4,{16}3,{32}6,5,{16}6,7/5-2[16:1],5,4/6,6,
{8}5/3,3b,{16}2/5,{32}3,4,{16}3,2,7/4,{32}6,5,{16}6,7,2/5V73[8:1],{32}3,4,{16}3-8[16:1],1/6,
{8}4b/5,1b,7x/5xV74b[8:1],{32}3,4V62[0.473##0.2027],{16}2,{8}5/1,2b,{16}1>4[16:1],1,8/2-6[16:1],3/7,
{48}1/5,6,7,8,,,{8}2/1,{16}7/8-4[16:1],{32}6,5,{16}6,7/1,8/2,2,3,3,7,{32}6,5,{16}6,4/7-1[16:1],
,3/5,6/4,7/5,4,3,{32}2,1,2,1,{16}3x/8x,6x/5x,{8}4x/7x,{16}5,6,{32}7,8,7,8,
{16}6x/1x,4x/3x,{8}5x/2x,{16}4/6,7,5/3,2,4/7,8,5/2,1,3/7qq5[32:3],{32}5,5V74[8:1],{16}5,4/6,
{4}3/7,{8}3h[8:1],{16}5,6/4h[8:1],,6,{64}7b/A8f,E1/B1/A1/D1,D2/E2/A2/B2,E3/B3/D3/A3,,,,,{8}6h[8:1],{16}4,3/5h[8:1],
,3,{64}2b/A1f,E1/B8/A8/D1,D8/E8/A7/B7,E7/B6/D7/A6,,,,,{8}3h[8:1],{16}5,6/4h[8:1],,6,{64}7b/A8f,E1/B1/A1/D1,D2/E2/A2/B2,E3/B3/D3/A3,,,,,{8}6h[8:1],{16}4,3,
{64}3/A1fh[8:1],,,,,,,,,E1/B8/A8/D1,D8/E8/A7/B7,E7/B6/D7/A6,,,,,{16}5x/4x,3,2,3,5x/4x,6,7,6,3x/5x,2,1,2,
4x/6x,7,8,7,{32}1,2,3,4,{16}5,5,2-5[16:1],5-1[16:1],1-6[16:1],6<4[32:5],{4}A7h[16:1]/D8h[8:1]/A8h[16:3]/E8h[4:1],
{64},,,,,,,,8bx/1bx,2bx/7bx,6bx/3bx,5bx/4bx,
E
E
