&title=Astral Quantization
&artist=Dj Grimoire
&first=0.02
&des=differ
&lv_5=14+
&inote_5=(185)
{16},,,,,,,,,,,,,,,,
{1}5xs1[1:3]`4xz8[1:3]b,,,,
{16}3h[8:1],,,4,2h[8:1],,,5,3h[8:1],,,6,2h[8:1],,,7,
1h[8:1],,,6,2h[8:1],,7,,7,,5h[8:1],,6,4,7,,
6h[8:1],,,5,7h[8:1],,,4,6h[8:1],,,3,7h[8:1],,,2,
8h[8:1],,,3,7h[8:1],,2,,2,,4h[8:1],,3,5,4,,
6<8[8:1],,6,,3-5[8:1],,2,,7z3[4:1],,,,,,2,,2<6[4:1],,,,6V42[4:1],,,,4s8[4:1],,,,,,,,
2h[8:1],,,1,3h[8:1],,,8,2h[8:1],,,7,3h[8:1],,,6,
4h[8:1],,,7,3h[8:1],,6,,6,,8h[8:1],,7,1,8,,
2-4[8:1],,5,,2,,6,,8V64[4:1],,,,4,,2,,1-5[8:1],,1,,4,,,,2-5[8:1],,2,,6,,,,
7<5[8:1],,1,,7,,2,,3V17[4:1],,,,7,,6,,5-8[8:1],,5,,4,,,,7<6[16:1],5>4[16:1],7,,,,,,
2,,3,,5,,6,,1,,3,,5,,7,,1,2,3,4,8,7,6,5,2,3,4,5,1,2,3,4,8,,8,,17,,1,,26,,6,,38,,3,,
{24}1,2,3,4,5,6,
{16}1x/7,2x,3x,4x,8bw4[8:1],,,,,,,,2-4[8:1],,2,,6-8[8:1],,6,,5s1[4:1],,5,,6,,,,
7<5[8:1],,7,,3>1[8:1],,3,,4-8[8:1],,4,,1x,2,3,4,7-4[8:1],,,,7,,1,,8-5[8:1],,,,8,,3,,
2,4,2,4,3v1[8:1],,,,8V64[16:3],,,,8,,2,,
1-3[8:1],,1,,6-8[8:1],,6,,5V31[4:1],,,,7,,,,
6>4[8:1],,6,,8>2[8:1],,8,,7v6-4[4:1],,,,
4,3,2,1,8x>2-6[4:1],,,,6>3[8:1],,,,7,,7,,2,,35,,
6,4,7,5,8,1,2,3,1<6[8:1],2,3,4,5/1b,,,,
{24}A5/E5,A4,A3,A2,,,
{16}8-6[8:1],,7,1,8-2[8:1],,3-5[8:1],,8,,3,,7-4[8:1],,,,71,,2,,3,5,4,6,
2<8[8:1],,,,7<5[8:1],,7,,3>1[8:1],,3,,8<6[8:1],,8,,4>2[8:1],,4,,
8,,6,,1,,35,,7,4,6,6,1-5[8:1],2,3,4,
5/1b,,,,4,,2,,17,,5,,4-8[8:1],6,4,6,
4b,,,,5,,7,,82,,4,,6-1[8:1],3,6,3,6b,,,,2,8,3,7,4h[4:1]b,,,,6,2,5,3,
7bh,,3,4,1h,,1,7,
{24}2-6[8:1],3,4,8,7,6,
{16}2b,,,,
8,1,2,3,41,,2,,37,,6,4,7,,8,,
E4,A3,7,2,6,,1,,E2,A2,6,3,7,,4,,
4,5,6,7,85,,6,,73,,2,8,3,,4,,
A7,D8,2,2,6,,3,,E7,B6,3,3,7,,2,,
5,4,3,2,14,,3,,26,,7,1,6,,5,,1h[8:1],,B8,A8,2h[8:1],,B7,A7,3h[8:1],,B6,A6,4,,4,,
5,6,7,8,5,4,3,2,4,5,6,7,1,2,3,4,8,4,8,,7-3[8:1],,,,3-7b[8:1],,,,,,,,
{24}1,2,3,
{16}4h[8:1],,7h[8:1],,5,6,2h[8:1],,4,3,8h[8:1],,5,6,
1h[8:1],,5,3,7h[8:1],,4,6,2h[8:1],,5,3,8h[8:1],,4,6,1h[8:1],,4,5,2,3,6,7,
4x>1[8:1]/8x<5[8:1],,,,,,,,5,6,1,2,6,7,2,3,6x>5[16:1],,4x>3[16:1],,6b,,,,
1,7,1,7,2,8,2,8,3,5,3,5,1h[4:1]b,,,,
8,2,8,2,7,1,7,1,6,4,6,4,8h[4:1]b,,,,
2,5,3,6,1h[4:1]b,,,,7,4,6,3,8h[4:1]b,,,,2b,4,3,6b,4,5,1b,,
{24}1x,8x,7x,6x,5x,4x,7h[4:1]b,,,,,,
{16}8,1,2,3,1x/4,5,6,7,6x/8,1,2,3,5x,6,7,8,5,4,3,2,4x/1,8,7,6,7x/5,4,3,2,8x,7,6,5,
1x,2,3,4,1x,2,3,4,2x,3,4,5,2x,3,4,5,62,37,48,15,6x,5,4,3,7x,6,5,4,8xh,1xh,2xh,3xh,
4,5,6,7,5x/8,1,2,3,2x/4,5,6,7,1x,2,3,4,1,8,7,6,8x/5,4,3,2,3x/1,8,7,6,4x,3,2,1,
5x,6,7,8,5x,6,7,8,6x,7,8,1,6x,7,8,1,
4h[8:1],,3,5,4h[8:1],,7,3,5h[16:1],,5h[16:1],,4,6,4,6,
3,2,7,6,3,2,7,6,2,1,6,5,1,8,5,4,
1,4,1,4,2,5,2,5,3,6,3,6,4,7,4,7,
5,6,3,7,4,5,2,6,
{16}E2,E3,E4,E8,E7,E6,D3,D4,D5/8x,7,6,5,14,8,7,6,51,8,7,6,25,1,8,7,
4,7x,4,7x,5,8,5,8,
{24}1,2,3,5,6,7,8h[4:1]b,,,,,,
{16}5,1,5,1,4,8,4,8,
{24}3,2,1,7,6,5,4h[4:1]b,,,,,,
3,4,5,6,7,8,1h[4:1]/6,,,,,,6,5,4,3,2,1,8h[4:1]/3,,,,,,
{16}3x,3x,,7x,7x,,2,6,,5<8[8:1],3,4x,,1/5,,,
2bx-4[8:1],,,,2bx/7bx-3[8:1],,,,7bx/1bx-5[8:1],,,,1bx-3[8:1],,8,,1bx/6bx,,7,,
8h[4:1]bx,,,,5bx,7bx,5bx<7[8:1],,1bx,,5bx,,3bx-5[8:1],,3bx,,3bx/8bx-2[8:1],,,,
8bx-6[8:1]/5bx-3[8:1],,,,5bx/8bx>3[8:1],,,,8bx,,,,4bx-7[8:1],4bx,,,1bx-5[8:1],,,,E8f,,,,
7bx-5[8:1],,,,7bx/2bx-6[8:1],,,,2bx/8bx-4[8:1],,,,8bx/3bx,2bx,1bx,,4bx,,6bx,,
1h[4:1]bx,,,,4bx,2bx,4bx>2[8:1],,7bx,,4bx,,6bx-4[8:1],,,,6bx-8[8:1],,1bx-5[8:1]
,,6bx,,1bx,,7b,,7b,,5bx-2[8:1],5bx,6b,,8bx-4[8:1],,7bx,,2bxw6[8:1],,,,,,,,
{24}8bx,1x,2x,3x>5V31[1:1]b,,,,,,,,,4,,,,,,3,,,,,,2,,,,,,
{8}8,,
{16}8,7,8,,4,6,4,,E6,B6,4,,E2,A2,7,,3/6,,6-4[8:1],,,,1-5[8:1]/6,,
,,1,,7,,4,,6<1[8:1],5,6,,3<5[8:1]b,,,,8-4[8:1],,7,,2q6[8:1],,,,2,,7-3[8:1],,,,78,,
,,2-5[8:1],,5-1[8:1],,2,,7-3[8:1]*-4[8:1],,,,7,,,,25,,1,,37,,6,,5,7,5,,8,,2,,
4,,3h[8:1],,
{24}1x,8x,7x,6x/4x,3x,2x,1xw5[8:1],,,,,,,,,,,,
{16}7,5,6h[8:1],,4,6,3,5,2h[8:1],,4,,4,3,4,3,
5,4,5,4,7-4-8[4:1],,7x,,8bw4[8:1],,,,,,,,
2x,,4,4,1x,,2,2,7x,
,8,8,5x,,4x/6x,,4x,,7,7,3x,,24,,1x,5x,1x,5x,
{16}E3,E4,E8,E7,
{16}2bx,,2bx/6bx,,2bx/4bx,,1,,7bx,,5,6,3bx,,25,,
4bx,,2,8,3bx,,6bx,,7bx-4[8:1]b/1bx-4[8:1]b,,1,,,,,,
6bx,5,6,5,7bx,4,6,4,8bx,8,2bx,2,5bx,5,3bx,,
{32}E4,E5,E6,E7,E8,E1,E2,E3,E4,E5,E6,E7,E8,E1,E2,E3,
D4,D5,D6,D7,D8,D1,D2,D3,D4,D5,D6,D7,D8,D1,D2,D3,
{16}D4f/7bx,,6,4,8bx,,17,,2bx,,3/4h[4:1],,2,,1bxq5[8:1],,E6,E7,E8,,
8bx-6[8:1],,8,,5bx-1[8:1]*-7[8:1],,,,5bx,,,,
2bx,,3,5,1bx,,82,,7bx,,6/5h[4:1],,7,,8bx,,A4,D4,A6,D6,E4,A3,E6,A5,
2bx-5[8:1],,5bx-1[8:1],,2bx,,,,
8h[8:1],,5,6,1h[8:1],,4,3,7h[8:1],,5,6,2h[8:1],,4,,35,,5,,46,,4,,17,,3,,28,,6,,
35,,47,,12,,35,,6bx,7,18,2,3bx/5,,6,,
{32}4/8bx,1,2,3,4,5,6,7,8,1,2,3,4,5,6,7,8,1,2,3,4,5,6,7,8,1,2,3,4,5,6,7,
{16}3bx-1[8:1],,,4,3bx-5[8:1],,6,,7bx-4[8:1],,7x,,1bx<6[8:1]b,,,,
1bx/2bx,,3x,,4bx/6bx,,5,,8bx/7bx,,,,1bx/2bx-5[8:1],,3bx/5xb,,
1bx/2bx,,7,7,6bx-1[8:1],,3,3,6bx,,2x,,3bx/8bx-4[8:1],,1bx/7bx,,3bx/8bx,,,,
3bx-8[8:1]b/5bx,,,,3b,7bx,7bx,,1,6,2,5,
{16}34,,2,,1bx,7,1,7,5bx,6,5,6,3bx,4,3,4,
2bx,1,2,1,3bx-8[8:1],,7-4[8:1],,3bx,,7bx,,1,1,5,5,
2,8,4,6,1,7,2,5,2,8,4,6,1,7,2,5,1bx,2,3bx/7,6,5bx,,2bx,,
{32}4bx,5,6,7,1bx,2,3,4,7bx-3[8:1],8,1,2,3,4,5,6,,,,,,,,,
{8}1,,2-5[8:1]/5,,7,,6-1[8:1]/4,,1,,2-5[8:1]/5,,7,,
7v4[8:1]/2,,4,,3-8[8:1]/8,,6,,7-4[8:1]/1,,4,,3-8[8:1]/8,,6,,
64,3,5,1,78,16,25,34,35,7,4,8,21,83,74,65,
{16}3,4,2,5,1,6,8,7,2,1,3,8,4,7,5,6,
4x,3x,6x,5x,1x,2x,8x,7x,3x,4xz8[16:35]b,5x,6x,1bxs5[1:2],
