&title=Dragoon[DX]
&artist=Shandy Kubota
&first=0
&des=ChocoRed
&lv_5=13+
&inote_5=(175){1},,,,,,
{8}
2h[2:3]/4,4,,5,5,,6,6,,5,5,,4<6[8:1],,,,
7h[2:3]/5,5,,4,4,,3,3,,4,4,,5-2[8:1],5-8[8:1],,,
1h[8:1],,,2h[8:1]/4h[8:1],,,3h[8:1]/5<1[4:1],,,,,2,4,3,5,4,
5h[8:1]/3h[8:1],,,6h[8:1]/4h[8:1],,,7h[8:1]/5s1[4:1],,8h[4:1],,,B7,B5,B3,B1,C,
8h[8:1],,,5h[8:1]/7h[8:1],,,6h[8:1]/4h[8:1],,{12}4,3,2,1/8,7,6,5/1,2,3,45,6,7,{8}
8h[8:1]/3h[8:1],,,1h[8:1]/6h[8:1],,,2h[8:1]/7h[8:1],,
8,8z4[4:1],,4z8[4:1],4,,,,
7h[8:1]/1h[8:1],,,3h[8:1]/5h[8:1],,,
7h[8:1]/4,4,,2h[8:1]/5,5,,3-7[8:1]/7-3[8:1],37,Cf,,
6h[4:1],,5,47,,4h[8:1],{16}5,3,{8},
3h[4:1],,4,52,,5h[8:1],{16}4,6,{8},
7<4[8:1],7,3,2,1-5[8:1],1,
,7,8>3[8:1],8,3,4,5-1[8:1],5,,8,
82,8,82,8,83,8,83,8,47,4,47,4,46,4,46,4,
5,46,73,28,4,53,26,17,{16}8,1,7,1,8,2,8,8,,,,,Cf,,,,
{16}
7-4[8:1]/3-8[8:1],,,,7-4<8[8:3],,,,1>4[8:1]b,,,,,,,,
75,,,24,,,8hh[16:5],,C,,,B6/B5,,3,4,,
2-5[8:1]/6-1[8:1],,,,2-5>1[8:3],,,,8<5[8:1]b,,,,,,,,
{12}2x,3,4,B5,B6,E7,3,2,1,B8,B7,E7,{16}
2v5[8:1]/6xv1[8:1],,,,2v5>1[8:3],,,,8<5[8:1]b,,,,,,,,
24,,,75,,,1hh[16:5],,C,,,B3/B4,,6,5,,
7v4[8:1]/3v8[8:1],,,,7v4<8[8:3],,,,1>4[8:1]b,,,,,,,,
{12}7x,6,5,B4,B3,E3,6,7,8,B1,B2,E3,{8}
5-1[8:1]/3x,4,56,7s3[16:3],,7,1,,
4-8[8:1]/6,5,43,2z6[16:3],,2,8,,
5-1[8:1]/3,4,56,7s3[16:3],,7,1,,
2-5[8:1],1-6[8:1],2,1,4,53,26,71,
8-4[8:1],7,8/2-5V38[8:3],1,2/6-1[8:1],7,6,,
2-5[8:1],3,2/7-4V61[8:3],8,7/3-8[8:1],2,3,,
7-4[8:1],6,7/2-5V38[8:3],1,2/6-1[8:1],7,6,,{16}
2,3,4,5,8,7,6,5,3,2,1,8,{32}5x-1[8:1]/1x-5[8:1],6x/2x,7x/3x,8x/4x,,,,,
{1}1x<1<7s3[8:26]b`Cf,,,,
{16}
64,,5,,24,,3,,1h[4:1],,,,4,2,5,3,
6,,4,,75,,6,,8h[4:1],,,,5,7,4,6,
2,,4,3,4,3,4,,7,,5,6,5,6,5,,48,3,2,1,48,7,6,5,{32}4-8[8:1]/8,3,2,1,8,7,6,5,4b,,,,,,,,
{8}
7h[8:3],6,5,3h[8:3],4,5,7-3-7[4:1],,7,1-5-1[4:1]b,,1,8,,2b/8b,,
{16}
37,,6,5,7,,16,,3,4,2,,1-5[8:1],,2,,
1/7-4[8:1],,8,,7/2V48[4:1],,1,,2,,7,,7,,,,
62,,3,4,2,,83,,6,5,7,,8-4[8:1],,7,,
8/2,,1,,2h[4:1]/6,,A7/D8/E8,,A5/B5/E5,,C,,38,,,,
37,,6,5,7,,16,,3,4,2,,4-8[8:1]/1,,5,,
4/6-1[8:1],,5,,6/3V15[4:1]*V17[4:1],,4,,3,,,,,,,,
62,,3,4,2h[4:1],,A7/D8/E8,,A5/B5/E5,,C,,37,,,,{8}
5>2[8:1],6,7,8,1w5[8:1],28,1`Cf,,
7v4[8:1]/3v8[8:1],,37,,15,2-8[8:1]/6,5,2-4[8:1],7,2-6[8:1],6,2,8w4[8:1],7,8,,
{16}26,,3,4,2,,6,5,8,,6,1,5,2,4,3,5,4,6,5,7,4,8,3,{24}1,2,1,2,1,2,3bx/8bx,,,,,,{8}
2v5[8:1]/6v1[8:1],,2<6[16:2]/6>2[16:2],,26,,
8x/4x,1x/5x,6,7h[4:1]/3,,A2/D2/E2,A4/B4/E5,,8,2,
{16}73,,6,5,7,,3,4,1,,3,8,4,7,5,6,4,5,3,4,2,5,1,6,{24}8,7,8,7,8,7,6bx/1bx,,,,,,{8}
2-6[8:1],1-5[8:1],2<3[8:2],1,2,,8,,
7-3[8:1],8-4[8:1],7>6[8:2],8,7,,1,2,
2-6[8:1],1-5[8:1],2<3[8:2],1,2,,8,7,
7-5[8:1],8-2[8:1],7-3[8:1],8-4[8:1],7>6[8:2],8,7,,
8,1,2-7[8:1]/6-3[8:1],73,2-5[8:1]/6-1[8:1],,26,,{16}
8x-4-8[4:1]/4x,73,26,51,8,,A4,,A8f,,,,{8}7h[8:1]/1,2,3<6[8:1]/8,2,37,8z4[16:3],,8,1h[8:1],,
1x/5x,2x/6x,3x/7x,4x/8x,8hx[8:1]/4x,4,{32}1x,2,3,4,5,6,7,8,{8}1b/5b,,
3-7[8:1],2,3/1-6[8:1]*-4[8:1],,1x,,
7-3-5[16:3],7,,8,1-5[8:1],2,1,,
8<3[16:3],8,,1>6[16:3],1,,8p8[4:1]*-6-4-2-8[4:1],,,,,
B2/E3,B5/E5,E1/B1,E7/B6,C,7V53[16:3],7,,2,1-6[8:1]*-5[8:1],,1,,{12}
4x,3,2,8,7,6,3,2,1,7,6,5,{8}
4-8[8:1]/2,3,14,2,3,4,5h[4:1]/7h[4:1],,{32},4x/6x,5x/3x,2hx[32:3]/4hx[32:3],,,,5x/3x,4x/6x,7hx[32:3]/5hx[32:3],,,,4x/6x,5x/3x,2x/4x,{8}1bx,,{16}
8-4[10:1],2,6,4,
