&title=PERSONA
&artist=Tsuko G
&first=0.19
&des=拜托老天爷你搞错了吧我应该是
&lv_5=13+
&inote_1=
&inote_5=(128)
{1},
{16}56,,,,24,,,5/7^2[16:3],,,,,4-6[8:1],,,4h[16:3],
{16},,,,3,3,4,2,5h[16:2],,3,7h[16:2],,5,6,6,
{16}2h[8:1],,,,24,,,5/7^2[16:3],,,,,4,,4bpp5[2:1]*qq8[2:1],,
{16},,,,,,,,,,,,,,1,,
{16}3b/7b,,4/5h[16:2],,4,6h[8:1],,5,7h[8:1],,5,6,2,,18,,
{16}27,,6/4h[16:2],,5,3h[8:1],,4,2h[8:1],,4,3,7,,81,,
{16}8,,75,,3,4,,6,5,,3,4,2,,8^5[8:1]/1,,
{16}2,,3,3h[8:1],,,34,,2,4,3,6,5,7,3h[8:1],,
{16}8b,,73,,5,3h[8:1],,4,2h[8:1],,4,3,7,,81,,
{16}72,,3/5h[16:2],,4,6h[8:1],,5,7h[8:1],,5,6,2,,18,,
{16}1,,24,,6,5,,3,4,,6,5,7,,18,2,
{16}3/4,,,,5/7,,,,17,2,3,4,8/5,7,6,5,
{16}4bpp6[32:4]/1,,,,2-4[32:3],,,,5qq3[8:1],,,,7-5[32:3],,,,
{16}1h[16:3],,,4,1,,24,,5^8[8:1],,6,,2,,,,
{16}1qq7[32:4]/3,,,,3-1[32:3],,,,8pp2[8:1],,,,7^5[32:3],,,,
{16}1h[16:3],,,4,1,,24,,3,,4,,56,,7,,
{16}8v2[8:1],,,,6-8[32:3],,,,1v7[8:1],,,,2-4[32:3],,,,
{16}6h[16:3],,,5,6,,4/7h[4:1],,,,1,,2,,3/5,,
{16}4/6^1[8:1],,,,2p6[8:1],,,,5p4[4:1],,,,2,,,,
{16}1,,3,,56,,3,4,3,4,2,,7,,4,5,
{16}3b,,62,,43,,5V74[16:3],5,,4-8[8:1],,2,2,,1,,
{16}1,,37,,56,,4V25[16:3],4,,5-1[8:1],,7,7,,8,,
{16}6,,1/4^7[8:1],,2,,34,,2,,1,,74,,6,,
{16}2/5,,3,4,1h[8:1],,6,5,8h[8:1],,4w8[32:3],,26,,,,
{16},,34,,56,,7-4[8:1],7,,1^6[8:1],,3,3,,5,,
{16}4,,2,,5/6,,7pp4[8:3],,,,6,,4,,2,,
{16}1h[8:7],,,,3,,,,5,,,,7,,8,,
{16}1/2z6[16:5],,,,,,,,,,,,3,4,2h[8:1],,
{32}5b,6,7,,1,,,,{16}43,,1,,5h[8:1],,2,5,,34,,6,
{16}4,,8,,56,,8,,4h[8:1],,7,4,,65,7,3,
{16}5,,3,,34,,1,,5h[8:1],,4,5,,46,,3,
{16}8,,26,,3,,54,,6,,3,4,,56,,47,
{16},,8,,12,,4,,8h[8:1],,3,8,,21,,7,
{16}1,,6,,65,,4,,7h[8:1],,4,7,,78,,2,
{16}5,,7,,64,,1,,5h[8:1],,2,5,,46,,3,
{16}4^2[32:3],,7^5[32:3],,,,,,1,1,7,7,4,5,3,,
{16}2b/4b-1[8:1],,3,,4/8^3[8:1],,7,,86,,5,5h[8:1],,2,,3,
{16}2/4-1[8:1],,5,,4/8^3[8:1],,7,,86,,5,5h[8:1],,4,,6,
{16}7/5-8[8:1],,4,,5/1^6[8:1],,2,,13,,4,4h[8:1],,7,,5,
{16}6^1[8:1],,7,,2^5[8:1],,3,,21,,8,8h[8:1],,6,,45,
{16}4b^1[8:1],,3,,4/8^3[8:1],,7,,86,,5,5h[8:1],,2,,4,
{16}4^1[8:1],,3,,4/8^3[8:1],,7,,86,,5,5h[8:1],,4,,6,
{16}7/5-8[8:1],,4,,5/1^6[8:1],,2,,13,,4,4h[8:1],,7,,5,
{16}2b^8[8:1],,3,,7bp3[8:1],,6,,1,,1,,{32}1,2,3,4,5,6,7,8,
{16}1b,,2,,3/5^3[8:1],,,2h[8:1],,,2,,3/5^3[8:1],,,2h[8:1],
{16},,2,,1/6^3[8:1],,,1h[8:1],,,1pp6[32:7],,7,,5,,
{16},,7,,5^7[8:1],,,2h[8:1],,,2,,6^4[8:1],,4^2[8:1],,
{16}2<6[4:1],,,,6>4[8:1],,4pp1[16:5],,,,3h[4:1],,,,,,
{16},,7,,6/4^6[8:1],,,7h[8:1],,,7,,6/4^6[8:1],,,7h[8:1],
{16},,7,,8/3^6[8:1],,,8h[8:1],,,8qq3[32:7],,2,,3,,
{16}4h[8:6],,,,3,,,,,,,,6,,7qq4[8:5]/4qq1[8:5],,
{16},,,,,,,,,,,,,,,,
{16}1b/8b,,2,,3/5^3[8:1],,,2h[8:1],,,2,,3/5^7[8:1],,,2h[8:1],
{16},,2,,1/6^3[8:1],,,1h[8:1],,,1pp6[32:7],,7,,5,,
{16},,7,,5^7[8:1],,,2h[8:1],,,2,,6^4[8:1],,4^2[8:1],,
{16}2<6[4:1],,,,6>4[8:1],,4pp8[16:6],,,,1^4[8:1],,,,,,
{16},,7,,6/4^6[8:1],,,7h[8:1],,,7,,6/4^2[8:1],,,7h[8:1],
{16},,7,,8/3^6[8:1],,8h[8:1],,,,8qq3[32:8],,,,3,,
{16}4<8[8:2],,,,8>4[4:1],,,,4pp1[16:6],,,,6,,7,,
{16}8-4[2:1],,,,1,,,,7,,,,3-7[32:3],,,,
{16}3pp4[8:3]*V14[8:3],,,,,,,,,,,,,,8,,
{16}2b/6b,,3,,3^5[32:3],,,,5^2[8:1],,,6,,,7,7,
{16}4,,25,,6^4[32:3],,,,4^7[8:1],,,3,,,2,2,
{16}5,,74,,3^5[32:3],,,,5>1[8:1],,,6,,,7,7,
{16}8,,26,,3,,54,,6^1[8:1],,5,,2-6[8:1],,3,,
{16}26,,7,,7^4[32:3],,,,7/4<8[16:2],,,1,,,2,2,
{16}6,,75,,4^6[32:3],,,,6>2[16:2],,,8,,,7,7,
{16}1,,5,,3/7-4[32:3],,,,7/4V61[16:3],,,1,,,2,3,
{16}4v3[32:3],,7v6[32:3],,,,,,1h[8:2],,5h[8:1],,,,{24}15,26,37,
{16}8b/4b-1[8:1],,5,,4/8^3[8:1],,7,,86,,5,5h[8:1],,2,,3,
{16}3/5-8[8:1],,6,,5/1^4[8:1],,2,,17,,6,6h[8:1],,5,,7,
{16}7/5-8[8:1],,4,,5/1^6[8:1],,2,,13,,4,4h[8:1],,6,5,7,
{16}3^6[16:3],,,6^1[16:3],,,1^4[16:3],,5-1[8:1],,{32},,,,5,,,,,,,,
{16}4b^1[8:1],,3,,4/8-3[8:1],,7,,86,,5,5h[8:1],,2,,4,
{16}4^1[8:1],,3,,4/8-3[8:1],,7,,86,,5,5h[8:1],,4,,6,
{16}7/5-8[8:1],,4,,5/1^6[8:1],,2,,13,,4,4h[8:1],,7,,5,
{16}1b-5[8:1],,2,,7bp3[8:1],,6,,1,,1,,{32}1p8[1:2],8,7,6,5,4,3,2,
