&title=燦々
&artist=Afterglow
&first=1.1
&des=Moiyang
&lv_5=13+
&inote_5=(196)
{4}
8h[4:1]/2,5h[4:1],6h[4:1],3h[4:1],5h[4:1],1s5b[1:1],,,,,
{8}
,6,5b/7,,
7,7,5,7,7,4,6,6,3,6,6,2,5h[8:3],1,1,1,
5,5,2,5,5,2,6,6,3,6,6,4,5,6/3,6/3,,
3>6[2:7]/4,,5,,4,4,5,4,,4,5h[8:1],,5,4,4,,
4,,5,,4,4,5,4,,4,5h[8:1],,5,4,4-6[8:1],,
3,,2,7,7,8,8-4b[8:1],8,4,,6,,5/7,,4/6,6,
7-5[8:1]/2,,,1,1,4,4,2,2-4[8:1],,5-7[8:1],,,2x,2x>4[8:1],,
7,,,6,1,2,8,7,2-5[8:1],,4-7[8:1],,,,2<7[4:1],,
7pp2[2:1],,5,,,5,6,6,6/4,4,4,6,
{16}
5/4,,2,4,3-1[8:1],,3,,
{8}
8b,,7/5,7,3,3,6-2[8:1],6,8>3[8:1],,8<5[8:1],,8-4[8:1],,8x,,
2b-6[8:1],,5^8[8:1],5,4,4,4-2[8:1],,4-6[8:1],,4-1[8:1],,4,8x,8x,,
1b-5[8:1],,4<7[8:1],4,3,3,8<5[8:1],,8x^3[8:1],,8-4[8:1],,8>4[4:1],,4x<8[4:1],,
8>4[4:1],,4<8[4:1],,8>4[4:1],,4,,5-1[8:1],,3-7[8:1],,4,4,4,,
5h[4:3],,3,,3,,3,B5,3,B6,3,B7,3/7x,,3,,
6/3,,6,,6,,6,,6,B4,6,B3,6,B2,6/2x,,
6<2[2:1],,A2/B2,,A3/B3,,A4/B4,,
5<1[2:1],,A1/B1,,A2/B2,,A3/B3,,
4<8[2:1],,8,,1,,2,3b-6[8:1],,3/7b-2[8:1],,1b,,,,
3>1[8:1],3h[8:1],,,4v1[8:1],4h[8:1],,,5-1[8:1],5h[8:1],,,6p1[8:1],6h[8:1],,
,7,1h[4:1],,7h[4:1],,3h[4:1],,5<1b[4:1]*>1b[4:1],,,,,,2,,3,,
6/4,7,3/5,2,3/5,7,4/6,2,
{16}
2,5,2,5,2,6,2,6,2,7,2,7,2,8,2,8,
{8}
2h[4:6],,8,,8,,8,,8,,8-4[8:1],,8b,,,,
7-2[8:1]/1,,3-6[8:1]/7,,8-5[8:1]/3,,8/2-6-3-5[2:1],,2/7,,1-6[8:1],,1,,4-7[8:1],,
4/2,,4-1[8:1],3,4/6,,7-3[8:1],8,7,,2-6[8:1],1,2,,6,7,
2-6[8:1]/8,,7-3[8:1]/2,,2^5[8:1]/7,,2/8-5-7-4[2:1],,8/2,,8-3[8:1],,8,,7-4[8:1],,
8,,2-5[8:1],,1,8,7,,
{16}
7,,4,6,4,,5,,7-2[8:1],,8,,7/3,,,,
{8}
4-2[8:1]/5-7[8:1],,4/5,,4/5,6,7>2<7[2:1],,3h[2:1],,,,,2,1^4[8:1],,
1/8,,5,,6^1[8:1],4,6,,3^8[8:1],5,3,,4-7[8:1]*-1[8:1],3,4,,
2-6[8:1]/8,,2/8-4[8:1],,1/8,2,3pp4-1-3[4:3],,8,8,7,,7,7,6,,
1-7[8:1]/7,,6-2[8:1]/1,,3-5[8:1]/6,,3/6,,
{32}
8/4>8[8:1],,,,,,,,8x,7x,6x,5x,4x,3x,2x,1x,8x,7x,6x,5x,4x,3x,2x,1x,8b,,,,,,,,
{8}
3,,5-7[8:1],5,3-5[8:1],,3,,7v4[8:1],,3,3,2-5[8:1],,1,,7,8,6,1,5-7[8:1],,3,,
2V46[2:1],,7,,8,,,,
8,,2-6[8:1],2,8<5[8:1],,3>8[8:1],,4-8[8:1],,5,6,7-2[8:1],,3-6[8:1],,
8-5[8:1],,2-7[8:1],,6-3[8:1],,4-1[8:1],,4b/7-4[8:1],,2-7[8:1]/7b,,8/2b,,,,
7h[8:1],4h[8:1],6h[8:1],5h[8:1],7h[8:1],4h[8:1],6h[8:1],5h[8:1],
{12}
6x,8,5,1x,4,2,3x,2,1,2x,8,3,
{16}
7,4,7,4,8,3,8,3,7h[8:3],,5,,4,,3,,
{8}
5/2h[8:3],,,1,3/8,,4,3,
{16}
3/5,,,4,5,,3x,,2x,,1x,,
{12}
7,6,5,3,2,1,5,6,7,8hb[4:1],,,,,,
1,2,3,5,6,7,2,3,4,6,7,8,
{8}
1b<6b[8:1]*>4b[8:1],,1bw5b[8:1],,
{32}
1b,B1,Cf,B6/B4/B5,
{8}
,,,
3,,4,4,,3,3/4,,4,,5,5,,4,4/5,,
3,,4,4,,3,3/4,,4,,5,5,,4,4/5,,
6,,5,5,,4,3/5,,6,,5,5,,6,6/5,,
3,,4,4/5,,4,4,,4,,4,,4-8[8:1],,4,,
7-2[8:1]/3-5[8:1],,3-8[8:1]/7,,6-1[8:1]/3,,6/3-7-2-8[2:1],,3/7,,6-3[8:1],,6x,,4<7[8:1],,
2/4,,2,1,8<5[8:1],,8>3[8:1]/1,,7/8<5[8:1],,8>3[8:1]/2,,6/8w4[8:1],,8,,
2-5[8:1]/8-4[8:1],,8-6[8:1]/2,,3x-7[8:1]/8,,3/7-5-8-4[2:1],,7/2,,2-6[8:1],,2,,5-7[8:1],,
2/5,,1-5[8:1],2,3/1,,8-4[8:1],7,6/8,,1w5[8:1],,1b,,,,
{16}
1-5[8:1],,,,1b/8-4[8:1],,,,1-5-3[4:1]/8b,,,,1,,6,7,
8b-4[8:1],,,,8b/2-6[8:1],,,,8-4-6[4:1]/2b,,,,8b,,3,2,
1b-5[8:1],,,,1b/7-3[8:1],,,,7b/2-4-8[4:1],,,,2b,,7,6,
5b-1[8:1],,,,5bw1[8:1],,,,5b,,,,7b/3,,,,
2/5b,,2,,2/5b,,2,,1/6b,,1,,1/6b,,1,2,
3b/7,,7,,3b/7,,7,,8/2b,,8,,8/2b,,8,7,
6-4[8:1],,6,,3-5[8:1],,3,,7-3[8:1],,7,,2,,2,,1/5<1[8:1],,,,
{32}
1/5,2x,3x,4x,5x,2x,3x,4x,5x,6x,7x,8x,1x,2x,3x,4x,5b/Cf,
