&title=彗星になれたなら
&artist=はるまきごはん
&first=0
&des=NovaSoma
&clock_count=4
&wholebpm=180
&lv_5=12
&inote_5=(180)
{1},
{1},
{2}
1h[2:1],B5,
2h[2:1],B6,
3h[2:1],B7,
4h[2:1],B8,
5h[2:1],B1,
6h[2:1],B2,
7h[2:1],B3,
{4}
8h[2:1],,4x,35,
{8}
2,,34,,5,5,46,,
7,,56,,4,4,35,,
2-4[8:1],,5,,6,6,57,,
6-8[8:1],,1,,3,3,24,,
7^1[8:1],,4,,3^5[8:1],,8,,
7h[4:1],,5h[4:1],,4h[4:1],,2,,
38,,47,4qq6[4:3]/7pp5[4:3],,,,,
,,,,5x,5x,3x,3x,
7,,65,,4,4,53,,
2,,43,,5,5,64,,
7-5[8:1]*-5[8:1],,4,,3,3,42,,
3-1[8:1]*-1[8:1],,8,,6,6,75,,
2^7[8:1],,5,,6^3[8:1],,1,,
2h[4:1],,3h[4:1],,4h[4:1],,5h[4:1],,
{4}
3-8[8:1],,7-4[8:1],,
3,3x/5x,7,1x/7xp6[4:6],
Cf,,,,
,,2x,2xq3[4:6],
Cf,,,,
{4}
,,8,8,
7p2[4:2],,E1,,
6^3[4:2],,E5,,
8<1[4:3],,C,,
7h[4:1],8,2,12,
6,6h[4:2],5,5h[4:2],
4,4h[4:2],3,3h[4:1],
(90)
{4}
7x-3[8:3]*-3[8:3],,,1b,
{8}
2-6[8:1],2,5-8[8:1],5,4-1[8:1],4,7>6[4:2],7,
C,,,,2,2,1-5[8:1],1,
7-3[8:1],7,4-1[8:1],4,5-8[8:1],5,2<3[4:2],2,
Cf,,,,7,7,8V62[6:1],8,
4-1[8:1],4,7-5[8:1],8,2-4[8:1],1,6,6,
7b,7/8b,2b,1b/2,3b,3/4b,6b,5b/6,
6qq3[4:2],6,8,8,1,1,2<3[4:3],2,
(180)
{1}
Cf,
{8},,,,,,,2,
{8}
,2h[8:1],1,,38,38,,7,
,7h[8:1],8,,61,61,,1,
,1h[8:1],8,,27,2q5[8:5]/7,,Cf,
{4}
,,8x,8x,
1-5[8:1]/6,7,3/8-4[8:1],2,
6x/8x^3[8:1],7,1x^6[8:1]/3x,2,
3-1[8:1]/5,7,4/6-8[8:1],2,
{8}
3,3,5,5,46,,46,,
{1}
3p6[4:2]/7^2[4:2],
2xq7[4:2]/6x,
1hx[4:4],
(90)
{4}
5,7p4[4:4],Cf,,
,,,,
{8}
2hx[4:1],,4,,3h[4:1]/5h[4:1],,,,
4h[4:1]/6h[8:1],,7>6[4:2],7,Cf,,,,
3,3,2-6[8:1],2,5-8[8:1],5,4-1[8:1]*-1[8:1],4,
7-5[8:1],8,2<6[4:2],2,Cf,,,,
5-8[8:1],5,2,2,
(180)
{4}
3-1[8:1],4,6-8[8:1],5,
4-2[8:1],6,5-7[8:1],3,
2b,2/1b,7b,8b/7,3b,3/4b,6b,5b/6,
{1}
4>6[4:2]/7,
2/5<3[4:2],
4w8[4:2],
{4}
3,3,5,5,
{1}
2h[4:28]/6h[4:28],,,,,,,,
(90)
{4}
4/6h[4:3],,
,5,
2h[4:3]/4,,
,3,
{8}
5/7h[4:3],,,,
5,5,6,,
{4}
3h[4:3]/5,,
{2}
,
{4}
7h[4:3]/8-5[4:1],,
,4x,
2h[4:3]/8qq8[4:1],,
,5x,
4h[4:3]/7-3[4:1],,
,{16}6x<2[8:1],,,Chf[16:1],
E
