&title=雪男
&artist=かねこちはる
&first=0
&des=
&des_5=Ring
&lv_5=14+
&inote_5=(256){4},,,,,,,,,,,,,,,Cfh[4:1],
{1}B7/B6/E7/B2/B3/E3,
,,,5v2[2:1]*v8[2:1],
1q8[2:1],
5-8[2:1]/1p4[2:1],
8-4[2:1],
{4}3/5bpp8[2:3],3h[8:1],3h[8:1],3h[8:1],
2,2h[8:1],2h[8:1],2h[8:1],
7/1pp7[2:3],7h[8:1],7h[8:1],7h[8:1],
6,6h[8:1],6h[8:1],6h[8:1],
{8}6,6,5,5,4,4,3,3,
5,4,5,4,6/3,7/2,{64}8qq5[4:5],1pp4b[4:5],,,,,,,{8}8/1,
{1}8b/1b,
{4},,,E6f/A6/D6/A5/B5/B6,
{8}2,8,4,8,2,6,4,6,
1,7,3,7,1,5,3,5,
6/2,6/2,{4}2/6,{8}7,8,7,3,
7,5,6,5,8,8,1,1,
{4}7b/2b-5[4:1],5b-1[4:1],1b-6[4:1],6b-8[4:1],
8b-4[4:1],4b-1[4:1],1b,7b,
{16}6b,5,6,5,{8}6,{16}3b,4,3,4,{8}3,{16}8b<5[8:3],1>4[16:5],8,1,
,,,,,,,,,,,,{4}E4f/A3/D4/A4/B4/B3,
{8}7,1,5,1,7,3,5,3,
8,2,6,2,8,4,6,4,
7/3,3/7,{4}3/7,{8}2,1,2,6,
2,4,3,4,1,1,8,8,
{2}7/2pp8[8:7],{4}7,{8}6,6,
,5h[4:1],,3,{6}4,2,6/1,
{16}7b,8,7,8,{8}7,{16}2b,1,2,1,{8}2,{16}5b-1[8:3],4-8[16:5],5,4,
,,,,,,,,,,,,{4}7b/2b,
1-5[8:1],8/1,{8}6/2-4[8:1],6,2,7,
{4}8-4[8:1],1/8,2/7-5[8:1],7/3,
4-2[8:1],{8}6/4,6,1-7[8:1],5,{4}1,
5-7[8:1],2/5,3/8-2[8:1],8/4,
5b,{16}8,7,6,5,2,3,4,5,6,7,8,1,
{12}E7,E6,A5,E2,E3,A3,B8,C,B4,1x/A4,,,{4}7h[4:1],
{16}4,3,2,1,6,7,8,1,2,3,4,5,
{4}2h[16:5]/6h[16:3],{8}6h[16:5],2h[16:5],,6,{4}2,
{8}7-5[8:1],7,4-2[8:1],4,8-4[8:1],8,1,1,
6-8[8:1],6,2-4[8:1],2,5-1[8:1],5,2,2,
8-4[8:1],8,2-5[8:1],2,6-1[8:1],6,3,3,
7,7,3,6,2/5,2/5-8b[8:1],{4}2/5,
{16},,,,2,1,2,1,{8}3,7,{4}5h[4:1],
{8}6,1-5[8:1],,1/8h[4:1],{32},,,,,,,,E8,B7,B6,E6,E3,B3,B4,E5,
{1}8-6qq1[0.4688##0.9375]*>8[0.4688##0.9375],
{8},,,,,,,,2x/7x,
6,5,4,5,4,{4}3h[4:3],
{8},,,,4,2h[4:1],,1,
2,3,4,5,4,5,{4}6h[4:3],
{8},,,,5,7h[4:1],,8,
7,8,6,1,5,2,{4}4h[4:3],
{8},,,,3,5h[4:1],,2,
6h[8:3],,,7h[8:3],,,{4}8q4[0.4688##0.3516]*-5[0.4688##0.3516],
,,,{16},,{24}E6/E4,B6/B3,B7/B2,
{2}E8/E2,{8}2x/7x-3[0.4688##0.1172],,,7/4,
,5,{4}5h[4:1],{2}4x-1[0.4688##0.1172],
4/5h[2:1],{8}8x>3[0.4688##0.1172],,,8/7,
,6,{4}6h[4:1],{8}4x,7/3-6[0.4688##0.1172],,,{2}3/2h[2:1],
{8}5x-1[0.4688##0.1172],,,7/5,
,6,{4}6,{2}3x/8x,
{4}1b/2h[4:1],3,3b/4h[4:1],5,
5b/6h[4:1],7,{8}4/8b,8/4,,2/6,
{4}2b/6h[4:1],4,7b/3h[4:1],5,
{2}8h[2:1]/2-6[0.4688##0.1172],C,
{4}8b/7h[4:1],6,6b/5h[4:1],4,
{8}4b/3,3/4,,2/7,{12}1b,8,1,8,1,8,
{4}7b/3h[4:1],5,2b/6h[4:1],4,
{1}5w1[0.4688##0.2344],
{4}2x-6V48-4V62[4:7],6,7,8,
7,6,7,8,
7-3-5-1[8:5],3,1,2,
{8}2h[8:1],4h[8:1],3h[8:1],5h[8:1],4h[8:1],6h[8:1],5h[8:1],7h[8:1],
1-5[8:1],1,8,8,2-4[8:1],6,{4}2,
{8}8-4[8:1],8,1,1,7-5[8:1],3,{4}7,
{16}3,5,3,5,3,5,3,5,2,6,2,6-3[0.293##0.1172],{4}2-7b[8:1],
{8},,,,2/8,8/2,{4}3b/7b,
{8}2-4[8:1],6-1[8:1],2,6,5-2[8:1],8-5[8:1],5,8,
{4}1>4[8:1],{8}5,6,7,8-4[8:1],3-1[8:1],8,
3,5,5,2,7,8-5[8:1]/1-4[8:1],,8/1,
{16},,,,,,3,4,{8}3,5,{4}2-5[8:1],
2b/8,{8}7,6,4/5,3,2/5,6,
7-5[8:1],8-4[8:1],7,8,1-5[8:1],2-4[8:1],1,2,
7,7,5,6,1,1,{4}2/8,
{16}7b,3,7,3,{8}7,{16}2b,6,2,6,{8}2,{4}4b<8[16:3],
4b/6h[4:1],{16}1,2,3,4,{8}5x/6x,6x/5x,,7/4h[8:3],
{24},,,,,,{12}7,5,6,1,4,3,5>1[6:1],,,{4}5b/3h[4:1],
{16}8,7,6,5,{8}4x/3x,3x/4x,,2/5h[8:3],
{24},,,,,,{12}2,4,3,8,5,6,4<8[6:1],,,{4}4b/6h[4:1],
{16}1,2,3,4,{8}6x/5x,6x/5x,,4/7-4-6-1[2:1],
,3,{4}3,{8}1,2,{4}3h[4:1],
{8}8-4[8:1],8,1-3[8:1],1,7-5[8:1],7,{4}4xh[4:1],
{16}7b,4,7,4,{8}7,{16}1b,5,1,5,{8}1,2-5b[8:1]/7-4b[8:1],7/2,
,,{4}1b/8b,{8}2h[8:1],4h[8:1],5h[8:1],7h[8:1],
2-4[8:1],8,2-8[8:1],7,2-6[8:1],6,2,5,
1,1-4[8:1],,1/5-8[8:1],,5/3qq7[2:1],,3/7,
,,,,5,1,{4}6-1[8:1]/2-5[8:1],
6/2,{8}4,4,7-5[8:1],4,7-1[8:1],3,
7-3[8:1],2,7,1,1,6,4,5xh[4:1],
,3b,2b/6,2b/6,3b/7,3b/7,4b/8,4b/8,
{16}1,2,3,4,5,6,7,8,1,2,3,4,{4}5b/1b,
Cf,{24}A2,E3,B3,B4,E5,A5,{8}7,7h[4:1],,4,
,5/6,{4}7h[4:1],5h[4:1],6h[4:1],
C,{24}A7,E7,B6,B5,E5,A4,{8}2,2h[4:1],,5,
,8/7,6/1,2/5v7[8:1]*p1[8:1],,,,,{4}8x-4[8:1],
8/2-5[8:1],2/7-4[8:1],{8}7/1-5[8:1],1,
{4}1/6-1[8:1],6/3-8[8:1],3/7-3[8:1],7,
2h[4:1],{8}1,8/3h[4:1],,4,{4}2/5h[4:1],
6,3/7,{2}1>4b[8:1]/8<5b[8:1],
{8}3x/7x-5[8:1],7,4,4,2/8-4[8:1],8,3,3,
6/2-4[8:1],2,5,5,7/1-5[8:1],1,6,6,
4/7-4[8:1],7,3,3,2/8-4[8:1],8,1,1,
5,5,3,4,{4}2h[2:1]/5>1[16:3],5b,
{16}8bx,7,6,5,8,7,6,5,1,8,7,6,1,8,7,6,
1,2,3,4,1,2,3,4,{4}8b,6x/2x,
{16}4b,5,4,5,3,6,3,6,2,7,2,7,1,8,1,8z4b[0.293##0.2344],
{4}1s5[4:1],,,E6f/A6/D6/A5/B5/B6,
{8}2-4[8:1],8,2,8,2-6[8:1],7,2,7,
4,4,5,3,6,6,5,7,
8-6[8:1],2,8,2,8-4[8:1],3,8,3,
5,5,4,6,1,1,8,8,
{4}2b/7b-4[8:1],4-8[8:1],8,{16}2,1,2,1,
{4}2-5[8:1],2/7-4[8:1],3/7,1,
{8}2/8,8/2h[4:1],,4h[4:1],,5,{4}3/6,
{16}7b,5,7,5,{8}7,{16}2b,4,2,4,{8}2,{16}8b,1,8,1,
{4}Ch[4:3],,,A3/A4/B4/B3/D4,
{8}7b-5[8:1],1,7,1,7-3[8:1],2,7,2,
8,8-5[8:1],,1/8-3[8:1],,8,{4}6h[4:1],
{8}4,7,3,5,1,1,8,8,
{4}7b/2b-5[8:1],5,6/1,{16}7qq1[8:5],8,7,8,
{4}7,2,3,4,
{8}5/7,5/7h[4:1],,5h[4:1],,4,{4}3/6,
{16}2b,4,2,4,{8}2,{16}7b,5,7,5,{8}7,{16}1b-5[8:1],8,1,8,
{32}1,Cf,,,,,,,,,,,,,,,{8}7h[8:1],6h[8:1],5h[8:1],4h[4:1],
,6<1[8:1],{24},,,2,3,4,{6}5x,5x,7x,
{2}8b/2b,{8}2h[8:1],3h[8:1],4h[8:1],5h[8:5],
,8,{4}8-4[8:1],{16},,,,5,6,7,8,
{4}1x/2x-6[8:1],8x,{8}1-5[8:1],3,{4}1x,
3-7[8:1],4x-8[8:1],4x/2x,1x,
{16}1b,8b,2b,7b,3b,6b,4b,5b,4b,5b,3b,6b,2b,7b,1b,8b,
{1}1bw5b[4:1],
3b-1-6<8-4[4:23]/7b-5-2>4-8[4:23],
,,,,,,{8}7h[8:1],
4h[8:1],6h[8:1],3h[8:1],5h[8:1],2h[8:1],4h[8:1],1h,
E
