&title=MEGALOVANIA (Camellia Remix)
&artist=かめりあ
&first=0
&des=Frisk
&lv_5=14+
&lv_6=AstroDX请玩这个
&inote_5=(242)
{1},,
||Chapter
1
{8}
,,,,,,,,
{32}8xz4[2:7]*s4[2:7],1x,2x/7x,3x/6x,,,,,{8},,,,,,,,,,,,,,
{8},,,,,,,,,,,,,,,,
{8}E5h[2:6],,,,,,,,,,,,,,,,
{8},,,,,,,,2,1,8,2,1,8,2,1,
{8}2x/8xh[8:13],,,,,,,,,,,,,A7/D7f/E7/A6/B7/B6,,,
{8}A2/D3f/E3/A3/B2/B3,,1xh[8:11]/6x,,,,,,,,,,,A4/D5f/E5/A5/B4/B5,,,
{8}2x/6xh[8:13],,,,,,
,,
{8},,,,,A1/D1f/E1/A8/B1/B8,,,
{8}2x/4x,,,,7x/5x,,,6x/3x,
{8},8,1,7,2,6x,3-6[8:1],,
{8}E8f,,,,E1,,,,
{8}E2,,,,E3,8xh[8:3],,,
{8}E4f,,1x/7x,,E5,,,,
{8}E6,,,,E7,2xh[8:3],,,
{8}E8f,,,,E1,,,,
{8}E2,,,,E3,6xh[8:3],,,
{8}E4f,,,,5x/7x,,,2x/4x,
{8},1,8,2,7,3x,6-3[8:1],,
{8}8b,,8,,8/E2h[8:1]/B2h[8:1]/E3h[8:1],,8,,6x,,6,,6/B8h[8:1]/B1h[8:1]/E1h[8:1],,6,,
{8}4x,,4,,4/E7h[8:1]/B6h[8:1]/E6h[8:1],,4,,2x,,2,,2/B3h[8:1]/B4h[8:1]/E4h[8:1],,2,,
{8}1x/5x,5,2/6,2,7/3,7,8/4,4,
{16}8,7,6,5,2,3,4,5,7,6,5,4,3,2,1,8,
{8}7xb`3x-5v4-6z2[8:12],,,,,,{8},,,,,,,,8,8,
{8}2b-4[8:1],,1-5[8:1],,2,,3x,3,4,2,4,1h[4:1],,7,3,1,
{8}2-4[8:1]/8,,8-6[8:1],,3,,4x,4,5,3,5,2h[4:1],,6,2,8,
{8}7-5[8:1]/1,,8-4[8:1],,7,,6x,6,5,7,5,8h[4:1],,2,8,1,
{8}8-4[8:1]/2,,1-3[8:1],,6,,5x,5,4,6,4,7,{16}2x,3,4,5,8x,7,6,5,
{8}1b,1,2-5[8:1]/8-5[8:1],,,,3x,3,4,2,4,1h[4:1],,6,6,2,
{8}8,8,1^4[8:1]/7^4[8:1],,,,1xb,1xb-4[8:1],,1-7v6b[8:3],,3,3xh[4:1],,,,
{8}2,2,1,3,7,7,8,6,
{16}3,4,3,,2,,2,,6,5,6,,7,,7,,
{8}3-5[8:1],3,7-4[8:1],7,1-5[8:1],1,7,7,
{24}2,3,4,5,6,7,8,1,2,3,4,5-1[24:4],{16}6b-2[8:1],,,,,,,,
{8}3xh[2:1]/A8/D8f/E8/A7,,,,2>5[8:1],,2pp1b[8:5],,,,8,,8,,,,
{8}6xh[2:1]/A1/D2f/E2/A2,,,,7<4[8:1],,7V58b[3:1],,,,3,,2/1x,2/1x,2/1x,2/1x,
{8}3xh[2:1]/A8/D8f/E8/A7,,,,2>5[8:1],,2<5b[3:1],,,,4,,4x,5xV38[8:9],3x,5x,
{8}6xbV47[8:6],,,,,,,,,,{32}E1,B8,B4,E5,,,,,
{8}E7/E3/Cf,,,,
||Chapter
2
||GAME
START!
{8}3-5[8:1]/8h[8:1],,8h[8:1],,3-5[8:1]/8h[8:1],,8h[8:1],,
{8}7,7,5,6,4-1[8:1],5,,,
{8}2x-4[8:1]/8h[8:1],,8h[8:1],,2-4[8:1]/8h[8:1],,8h[8:1],,
{8}38,{16}2,1,2,,7-4[8:1],,3-8[8:1],,7x,,,,,,
{8}6-4[8:1]/1h[8:1],,1h[8:1],,6-4[8:1]/1h[8:1],,1h[8:1],,
{8}2,2,4,3,5-8[8:1],4,,,
{8}3/7-3[8:1],,1,,2^5[8:1],1,5,6bxw2[8:1],
{8},,,,{16}8,7,6,5,8,1,2,3,
{8}7b-1[8:1]/4h[8:1],,4h[8:1],,2-6[8:1]/4h[8:1],,4h[8:1],,
{8}7x-5[8:1],2,7,8,8-4[8:1]*-3[8:1],,,,
{8}2-8[8:1]/5h[8:1],,5h[8:1],,7-3[8:1]/5h[8:1],,5h[8:1],,
{8}2-4[8:1],{16}1,,2,,7,,7-1[8:1],,5x,,5,,,,
{8}2,4,3,5,2,4,1,1,
{8}7,5,6,4,7,5,8,8,
{8}1h[8:1],7h[8:1],3h[8:1],5h[8:1],2h[8:1],6h[8:1],5,7xh[8:7]/3-5-2-6-1b[8:5],
{8},,,,,,,,
{24}1bqq6pp5[4:5]/7,2,3,4,,,{8},,{8}2,,2,,,,4,,4h[2:1],,,,
{24}8bpp3qq2[1:1],7,6,5,,,{8},,{8}7,,7,,,,5x-8b[8:1],,5b,,,,
{16}3,,3,,5,,5,,4,,4,,6,,6,,3,4,3,,6,5,6,,3,4,3,,7,5,7,,
{16}2xb-6[8:1],1xb,2xb,1xb,2b,,,,{8}8,8,1,7,6x-4[8:1]/2x,,3,2x-8[8:1],,8,7xh[4:1],,
{8}8^3[4:1],,3^6[4:1],,6^1[4:1],,1^4[4:1],,
{8}4^7[4:1],,7^2[4:1],,2,,5,,
{8}8/2-6[8:1],,6-3-5[3:1],,7,,8,,
{8}1/7-3[8:1],,3-6-4[3:1],,2,,1,,
{8}2/8-6[8:1]*-5[8:1],,,,2x/8x-5[8:1]*-6[8:1],,,,
{8}4,8,3,7,2,6,1,5,
{8}8-3b[8:1]*-2b[8:1],,,,8x-2b[8:1]*-3b[8:1]/6x,,,,
{8}4b,,56,7b/4,,4/3,5/2b,,
{24}8bpp3qq4[4:5]/2,7,6,5,,,{8},,{8}7,,7,,,,5,,5h[2:1],,,,
{24}1bqq6pp7[1:1],2,3,4,,,{8},,{8}2,,2,,,,4x-1b[8:1],,4b,,,,
{16}2x,1,2,1,3,,3,,1,,1,,2h[8:1]/8h[8:1],,,,
{16}3x,,3,,1,,2,8,2,8,2,,6h[8:1]/1h[8:1],,,,
{16}7x,8,7,8,6,,6,,8,,8,,7h[8:1]/1h[8:1],,,,
{8}3x-5[8:1],,6,7x-1[8:1],,1,2xh[4:1],,
{8}1^6[4:1],,6^3b[4:1],,3^8[4:1],,8^5b[4:1],,
{8}5^2[4:1],,2^7b[4:1],,7,,4,,
{16}6,,6,,5,,E7,B7,3,,3,,4,,E3,B2,
{8}8h[32:1],8h[32:1],8h[32:1],8h[32:1],1xh[32:1],1xh[32:1],1xh[32:1],1xh[32:1],
{32}2xb/7xb,3x/6x,4x/5x,,,,,,{8},,2,4,1-5[8:1],5,
{8}1V73[2:1]`Cf,,,,,,,,
{32}2xb/7xb,3xb/6xb,4x/5x,,,,,,{8},,2,4,1-5b[8:1],5,
{8}1V73[2:1]`Cf,,,,,,,,
{32}2xb/7xb,3xb/6xb,4xb/5xb,,,,,,{8},,2,4,1-5[8:1]*V73[4:3],5,
{8}1`Cf,,,,,,,,
{8}1/5,5,2/6,2,3/7,7,8/4,4,1/5,15,48,48,3/7,37,26,26,
{4}1/5qq8[4:10],,,,
{4},,1,,
{4}1q5[2:1],,,,
{16}6,5,6,,4,,3,,2,,7,,6,,5,,
{16}4b,,,,2/5h[4:1],,,,A8,E1,E2,A2,A6,E6,E5,A4,
{16}8,1,2,3,7x,6,5,4,1x,2,3,4,5,6,7,8,
{16}1x,,,,3/7h[4:1],,,,A8,E1,E2,A2,A6,E6,E5,A4,
{16}8,1,2,3,4,5,6,7,8xw4[8:1],,,,,,,,
{8}2x>6[4:1],,6<2[4:1],,2x,,6x,,
{8},,6x<2[4:1],,2x>6[4:1],,6,,
{8}2x>6[4:1],,6<2[4:1],,2x,,6x,,
{8},,6x<2[4:1],,2x>6[4:1],,6,,
{16}1b,,,,7/4h[4:1],,,,A1,E1,E8,A7,A3,E4,E5,A5,
{16}1,8,7,6,2x,3,4,5,8x,7,6,5,4,3,2,1,
{16}8b-4[8:1],,,,18,,{8}2b-5[8:1],,26,7b-3[8:1],,
{8}78,1b-6[8:1],,15,4bw8[8:1],,,,
{8}2h[4:1],,1,,4h[4:1]/3,,1,1,
{8}3h[4:1],8,8,,5h[4:1]/4,,1,1,
{8}4h[4:1],,1,,6h[4:1]/5,,1,1,
{8}5h[4:1],8,8,,7h[4:1]/6,,1,1,
{8}28,,{16}3h[4:1]/7,,,,1x,8,7,6,4,3,2,1,
{16}7x,6,5,4,1,2,3,4,6x,7,8,1,4,3,2,1,
7x,6,5,4,8,1,2,3,5x,6,7,8,4,3,2,1,
7x,6,5,4,1,2,3,4,6x,7,8,1,5,4,3,2,
{8}7h[4:1],,8,,5h[4:1]/6,,8,8,
{8}6h[4:1],1,1,,4h[4:1]/5,,8,8,
{8}5h[4:1],,8,,3h[4:1]/4,,8,8,
{8}4x,6x,2x,5x,3x,7x,18,27,
{8}3b-5-2-6[8:9]*V52-8[8:9]/6b,,,,,,,,
,,,,,4b,,,
6bpp7-4[8:9],,1bqq5[8:7],,,,,,
,,,,,3b,,,
5b-7v2[8:8]/1bV74[8:8],,,,,,,,
,,,,,2b/7b,,,
1bh[4:1]/2bh[4:1],,,,7bh[4:1]/8bh[4:1],,,6b-4v2[8:4]/1b-7-5-3[8:4],
,,,,,D3f/A2/A3,,,
{8}2xb-8[8:1]/5xh[8:1],,5h[8:1],,7-3[8:1]/5h[8:1],,5h[8:1],,
{8}2x-4[8:1],7,2,1,1-5[8:1]*-6[8:1],,,,
{8}7-1[8:1]/4h[8:1],,4h[8:1],,2-6[8:1]/4h[8:1],,4h[8:1],,
{8}7-5[8:1],{16}3,,7,,2,,2-8[8:1],,4x,,4,,,,
{8}7,7,1x,6,1,5,1,4,
2,2,8x,3,8,4,8,5,
{8}7h[8:1],6h[8:1],8h[8:1],5h[8:1],1h[8:1],4h[8:1],2xqq8^1-6[4:3],3xq5b[8:5],
,,,,,,,,
{24}1b^6pp7-5[4:5]/6,2,3,4,,,{8},,{8}3,,3,,,,2,,2h[2:1],,,,
{24}8b-2v1-3[1:1],7,6,5,,,{8},,{8}6,,6,,,,7xw3b[8:1],,7b,,,,
{16}A8/E8f/E1/E5/E4/A4,,,,,,,,6,2,6,2,6,2,6,2,
{16}7,,1,,8,,{24}2,3,4,{16}8-4[8:1],,1,,,,,,
{16}2,,8,,1,,{24}7,6,5,{16}1,,8,,2,,2,,
{16}6,,6,,37,,4,5,4,,26,,2h[4:1]/6,,,,
{8}1x,1x,1x,1x,3^8[4:1],,8^5[4:1],,
{8}5^2[4:1],,2^7[4:1],,7,,4,,
{8}1/7-3[8:1],,3-6-4[3:1],,2,,1,,
{8}8/2-6[8:1],,6-3-5[3:1],,7,,8x,8x,
{16}8bh[8:6],,,,,,,,,,,,,,,,
{16}3bh[8:1],,4bh[8:1],,1bh[8:1],,8bh[8:1],,5bh[8:1],,6bh[8:1],,1bh[8:1],,8b,,
{8}2-6b[8:1]*-5[8:1]/7,,,,2-6b[8:1]*-5[8:1]/7,,,,
{8}8-4[8:1],,4,,17,17,2b/6b,,
{24}8b^3qq2-4[4:5]/3,7,6,5,,,{8},,{8}6,,6,,,,7,,7h[2:1],,,,
{24}1b-7v8-6[1:1],2,3,4,,,{8},,{8}3,,3,,,,2x,,2b/6bh[2:1],,,,
{16}4,5,4,5,4,5,4,5,4,5,4,5,4,,,,
{16}6,3,6,3,6,3,6,3,6,3,6,3,6b,,,,
{16}7-5[8:1]/2,,,,8-4[8:1]/7,,,,1-3[8:1]/8,,,,13,,,,
{16}6,,6,,6,,3,4,3,,3,,2/6h[4:1],,,,
{8}8^3[4:1],,3^6b[4:1],,6^1[4:1],,1^4b[4:1],,
{8}4^7[4:1],,7^2b[4:1],,2,,5,,
{16}3,,3,,4,,E2,B2,6,,6,,5,,E8,B7,
{16}3p6b[2:1],,,,,,,,Chf[2:1],,,,,,,,
{4}1bxs5[4:4]*pp2[4:4],,,,
{4},,{8},3b<2[2:3],,,
{8}2b,,1b<4[4:5],,
{8},,,,,,,,,2b>8[2:3],,,
{8}8b<2[2:3],,,,,,,,
{8},,,,,7b<4[8:3],,,
{8}3xb<6[8:3],,,,1b,,,3xb/7xb,
{8},6,4,{16}5,,3,,8x,,8xh[4:1],,,,
{8}4,6,4,6,E3,6,4,6,4,6,4,6,E3,6,4x,4x,
5,3,5,3,E7,3,5,3,
5,3,5,3,E7,3,5x,5x,
{8}2,2,4,4,5,5,7,7,
{16}1,2,3,4,5,6,7,8,{24}1,2,3,4,5,6,7,8,1,2,3,4,
{24}5-1[8:1],,,,,,7,,,,,,{16}8b,1xb,8b,1xb,8bh[32:1],,8bh[32:1],,
||Who?
{16}2,,2,,6q4b[8:2],,6,,4,,,,,,,,
{8}2V48[4:1]/5,,1,,6V48[4:1],,7,,
{8}2V41[8:2],,1-5-8[4:1],,{24}A7/D7f/A6,,,,,,,,,,,,
{8}1V72b[4:1],,7,,5V36b[4:1],,3,,
{8}1x,,28,,3,3,4,4,
{8}2V48[4:1]/5,,1,,6V48[4:1],,7,,
{8}2V46[4:1],,6V48[4:1],,{24}1,,,,,,7b,,,,,,
{8}2x-4[8:1],,1x-5[8:1],,8x-6[8:1],,1x,,
{8}2z6[4:1],,6<2[4:1]*>2[4:1],,A7/E7/E6/A5f,,,,
{16}2,,2,,8,,8,1,8,,8,,2,,2,1,
{16}2,,2,,7,,7,1,7,1,7,,{24}2,3x,4x,8,7x,6x,
{32}2bx,3xb,4xb,5xb,8xb,7xb,6xb,5xb,{8},,6,6,{16}6,,1,8,
{24}2x,3,4,7,6,5,{8},3,3,3,{24}7x,6,5,2,3,4,
{8},7,7,{16}1,8,1,,6,,{24}2,3,4,8,7,6,
{16}2,,2,,5,,5,4,5,,5,,{24}2,3x,4x,8,7x,6x,
{32}2xb,3xb,4xb,5xb,8xb,7xb,6xb,5xb,{8},2,2,7,7,{16}1,8,
{24}2,3,4,5,6,7,8z4b[4:1],1,2,3,4,5,{16},,,,,,,,
{8}7xV51[4:1]/4x,,8,,3V51[4:1],,2,,
{8}7V58[8:2],,8-4-2[4:1],,{24}A1/D2f/E2,,,,,,,,,,,,
{8}8V27b[4:1],,2,,4V63b[4:1],,6,,
{8}8x,,71,,6,6,5,5,
{8}7h[4:3]/4>5[8:3],,,,,,{24}4bx,3x,2x,1x,,,
{8}7V53[4:1],,3V51[4:1],,{24}8,,,,,,2b,,,,,,
{8}4x-2[8:1]/8x^5[8:1],,8x-4[8:1],,4x-2[8:1]/8x^5[8:1],,8xw4[8:1],,
{8},,17,,A3/B3/E3/A5/B5f/E6,,,,
{16}7,,7,,1,,1,8,1,,1,,7,,7,8,
{16}7,,7,,2,,2,8,2,8,2,,{24}7,6x,5x,1,2x,3x,
{32}7bx,6xb,5xb,4xb,1xb,2xb,3xb,4xb,{8},,6,6,{16}6,,6,5,
{24}7h[4:1],,,8,1,2,{8}3b,{24}2h[4:1],,,1,8,7,6b,,,{8}2,2,
{8}6,6,4,{16}4,5,3,,3,,7,,7,,
{16}4,6,4,6,3,7,3,7,2,8,2,8,3,1,3,1,
{16}4xb-8[8:1],8xb-4[16:1],4xb,8xb,,,,,{24}1x,2,3,5x,6,7,1x,2,3,5x,6,7,
{16}E1f,,Cf,,E5f,,,,{12}8,1,7,3x,4xw8[8:1],2x,5b,,,
||Chapter
2
||cattered
fragments
{1},,,,,,,{4},,,
{4}E3,,,,
,,,
,E7,
,,,B4
,,
,,B5,,,
,
,
,,,A6,
,E4,,B8,,
,,A3,,
,,,
,,,E3
,,,,E2,,
,,E8,,,
,E7,,
,,
E6/E4,,
,,
,
,
,,
||Save
Toriel
{4}1/5,,6/2,,7xqq5[2:1]/3xqq1[2:1],,,,
Papyrus
{4}2/6,,3/7,,4x-1[2:1]`8x-5[2:1],,,,
Asgore
{4}2/6,,5/1,,4xq1b[2:1]/8xq5b[2:1],,,,
Undyne
the
Undying
{4}3/7,,2/6,,1x-5[2:1]/5x,,,,8/4,
Muffet
{4},3/7,,6x-3[2:1]/2x-7[2:1],,,,
Mettaton
EX
{4}8/4,,1/5,,2x/6xz2[2:1],,,,
Asriel
Dreemurr
{4}1/3,,2/8,,1x/7x,,6/8,,7/5,,6/4,,3bx<7b[2:1]`5x>1[2:1],,,,
{8}B2/B3/E3f/8h[2:1],,,,,,,,
{8}2h[2:1],,,,,A8/A1/E1f,,,
{8}B7/B6/E7f/4h[2:1],,B2/B3/E3f,,,,,,
{8}6h[2:1],,,,,E4f/A3/D4/A4,,,
{8}E6f/A6/D6/A5/1h[2:1],,,,,,,,
{8}3h[2:1],,,,,E8f/A7/A8/D8,,,
{8}E2f/A1/A2/D2/5h[2:1],,,,A7/D7f/A6,,,A2/D3f/A3,
{8},7,7,{16}1,8,1,,2b/7b,,,,,,
{8}Cf,,,,8x<5[2:1],,,,
{8},,,,1x>4[2:1],E7f,,,
{8}E5f,,E3f,,8x<5[2:1],,,,
{8},,,,1x>4[2:1],Cf,,,
{4}8<1[2:4],,,,,,,,
8<6-4>1[2:4],,,,,,,,
8<6-4-2^1[2:3],,,,,,,,
8-6-4-2<1b[2:3],,,,,,,,
{8}1/Cf,1,8,8,2,2,7,7,
3,3,6,6,4,4,5,5,
3,4,2,5,3,4,2,5,
3,4,1,6,3,4,8,7,
{16}1,2,6,5,1,2,6,5,2,3,7,6,2,3,7,6,
{24}2,3,4,8,7,6,2,3,4,8,7,6,{32}2x,3x,4x,5x,6x,7x,8x,1x,2xv3-1-4[8:11],3x,4x,5x,6xv7-5-8b[8:10],7x,8x,1x,
{8},,,,,,,,
{8},,,,,{16}3,7,3,7,3,,
{8}E7,,E6,,E4,,E3,,
B7h[4:3],,,B2h[8:3],,,C,,
18,,27,,36,,4>5[8:5]/5<4[8:5],,
,,,,,,,,
||Chapter
3
||Here
we
go
{8}2>5[8:1],7,2,6,6-2[8:1],3-5[8:1],6,3,
{8},38,,7h[8:2],{16}5,4,3,2,8,7,6,5,
{8}3>8[8:1],6,3,7,7-5[8:1],8-4[8:1],7,8,
{8},3/7,,1h[8:2],{16}4,5,6,7,1,2,3,4,
{8}7<4[8:1],2,7,3,3-7[8:1],6-4[8:1],3,6,
{8},61,,2h[8:2],{16}4,5,6,7,1,2,3,4,
{8}6<1[8:1],3,6,2,2-5[8:1],8-4[8:1],2,8,
{8},26,,1h[8:2],{16}8,7,6,5,8,1,2,3,
{8}8b,7b,6b/2x,,7-4[8:1],3-8[8:1],7,
{8}3,,2/6,,7h[8:2],{16}8,1,2,3,8,7,6,5,
{8}3-7[8:1],7,3,5,6-1[8:1],2-5[8:1],6,2,
{8},7h[8:1],3h[8:1],5h[8:1],{16}2,6,2,6,1b,,,,
{8}8/2,2,{16}6,4,6,4,7,,7,,1,,1,8,
{16}1,,1,,7,,7,,{16}2,1,2,,6b,,6b,,
{16}17,,7,,3,5,3,5,2,,2,,7,,5b/7b,,
{16},,2b/4b,,,,{24}1,2,3,4,5,6,7,8,1,2b/6b,,,,,,
{8}1b/7b,2b/6b,3b/5b,,1-5[8:1],5,1,7,
{8}7-3[8:1],3,7,1,{16}1,2,3,4,1-5[8:1],8,7,6,
{8}1,8,8<5[8:1],3,8,2,2-6[8:1],6,
{8}2,8-4[8:1],4,8,2,2,{16}15,,,,
{32}2x/7x,3x/6x,4x/5x,,,,,,{32}1xb,,,,,,,,
{32}2x/7x,3x/6x,4x,5x,,,,,{32}8xb,,,,,,,,
{32}2x/7x,3x,6x,4x,5x,,,,{32}1xb,,,,,,,,
{32}2x,7x,3x,6x,4x,5x,,,{32}8xb,,,,,,,,
{32}2xb,7xb,3x,6x,4x,5x,,,{32}1xb,,,,,,,,
{32}2xb,7xb,3x,6x,4xb,5xb,,,,,,,{8}3b-8[8:1]/7b-4[8:1],
{8},3b/7b,,1bw5[8:1]/5,,,,,
{16}2-6b[8:1],7,2,7,{8}2b,,8-4[8:1],4,8,2,
{8}2-6[8:1],6,2,8,{16}8,7,6,5,8-4[8:1],1,2,3,
{8}8,1,1>4[8:1],6,1,7,7-3[8:1],3,
{8}7,1-5[8:1],5,1,7b,7b,{16}7b,,7b,,
{48}2xb-8-4^5-3[4:5]/8xb,,7x,3x,6x,,{8}4x/5x,,,6h[8:1],,6h[8:1],,,,8h[8:1],,8h[8:1],,,,
{48}7xb-1-5[4:3]/1xb,,2x,6x,3x,,{8}5x/4x,,,4h[8:1],,4h[8:1],,,,36,,2,2,7,7,
{16}1,8,1,8,1,8,1,8,1,8,1,8,1,8,1,8,
{16}1,2x,7,6x,1,2x,7,6x,{24}2,3x,4x,8,7x,6x,{32}2,3,4,5,6,7,8,1,{8}2b,,,,,,,,,,8z4b[8:2],,,,,,
||GAME
OVER
{16}3,5,3,5,2,6,2,6,1,7,1,7,2,,2,,
{16}8,,8,,5,,6,4,6,,3/7,,{16}2xbh[32:1],8xbh[32:1],2xbh[32:1],8xbh[32:1],
{16}3,4x,7,6x,3,4x,7,6x,{24}2,3x,4x,8,7x,6x,2,3x,4x,8,7x,6x,
{8}2,2,25,2,26,2,27,2,
{8}1b^4[8:1]/8b^5[8:1],,,,3x-8[8:1],3,7-3[8:1],7,
{8}2-5[8:1],2,7-3[8:1],7,1,1,8,2,
{8}6-1[8:1],6,2-6[8:1],2,7-4[8:1],7,1b,1b>4[8:1],
{8},1b<6[8:1],,5xbs1b[8:2],,,,,
{16}2,8,2,8,3,7,3,7,4,6,4,6,3,,3,,
{16}7,,7,,1,,1,,7,8,7,,{16}1xbh[32:1],6xbh[32:1],1xbh[32:1],6xbh[32:1],
{16}2,3x,8,7x,2,3x,8,7x,1bx,,2x/8x,,3xh[8:2]/7x,,,,
{24}8,7x,6x,2,3x,4x,8,7x,6x,2,3x,4x,8b/A5f,,,{8},,,
{16}2,6,2,6,2,6,2,6,3,7,3,7,3,7,3,7,
{16}4,8,4,8,4,8,4,8,5,1,5,1,5,1,5,1,
{32}A4,A3,A2,A1,A8,A7,A6,A5,E4,E3,E2,E1,E8,E7,E6,E5,B3,B2,B1,B8,B7,B6,B5,B4,D4,D3,D2,D1,D8,D7,D6,,
{1}D5f,
{8}3,4,3,6,3,4,3,7,
3,4,3,8,3,4,3,1,
3,7,5,6,3,6,5,6,
2,6,5,6,1,6,5,6,
{8}8b/7b,1b/7b,2b/7b,,2b/4b,2b/5b,2b/6b,3b-8[8:1],
{8}7b-4[8:1],3b,7b,1b,1bw5[8:1],,,,
{8}3b,2,18,{16}7,2,7h[8:1],,5h[8:1],,3h[8:1],,
{8}1b,,{24}2b/1h[8:1],3,4,{16}5,,{24}7b/8h[8:1],6,5,{16}4,,1-5b[8:1]/2-5[8:1],,6/5<3[3:1],,Cf,,
&inote_6=(242)
{1},,
{8}
,,,,,,,,
{32}8xz4[2:7]*s4[2:7],1x,2x/7x,3x/6x,,,,,{8},,,,,,,,,,,,,,
{8},,,,,,,,,,,,,,,,
{8}E5h[2:6],,,,,,,,,,,,,,,,
{8},,,,,,,,2,1,8,2,1,8,2,1,
{8}2x/8xh[8:13],,,,,,,,,,,,,A7/D7f/E7/A6/B7/B6,,,
{8}A2/D3f/E3/A3/B2/B3,,1xh[8:11]/6x,,,,,,,,,,,A4/D5f/E5/A5/B4/B5,,,
{8}2x/6xh[8:13],,,,,,
,,
{8},,,,,A1/D1f/E1/A8/B1/B8,,,
{8}2x/4x,,,,7x/5x,,,6x/3x,
{8},8,1,7,2,6x,3-6[8:1],,
{8}E8f,,,,E1,,,,
{8}E2,,,,E3,8xh[8:3],,,
{8}E4f,,1x/7x,,E5,,,,
{8}E6,,,,E7,2xh[8:3],,,
{8}E8f,,,,E1,,,,
{8}E2,,,,E3,6xh[8:3],,,
{8}E4f,,,,5x/7x,,,2x/4x,
{8},1,8,2,7,3x,6-3[8:1],,
{8}8b,,8,,8/E2h[8:1]/B2h[8:1]/E3h[8:1],,8,,6x,,6,,6/B8h[8:1]/B1h[8:1]/E1h[8:1],,6,,
{8}4x,,4,,4/E7h[8:1]/B6h[8:1]/E6h[8:1],,4,,2x,,2,,2/B3h[8:1]/B4h[8:1]/E4h[8:1],,2,,
{8}1x/5x,5,2/6,2,7/3,7,8/4,4,
{16}8,7,6,5,2,3,4,5,7,6,5,4,3,2,1,8,
{8}7xb`3x-5v4-6z2[8:12],,,,,,{8},,,,,,,,8,8,
{8}2b-4[8:1],,1-5[8:1],,2,,3x,3,4,2,4,1h[4:1],,7,3,1,
{8}2-4[8:1]/8,,8-6[8:1],,3,,4x,4,5,3,5,2h[4:1],,6,2,8,
{8}7-5[8:1]/1,,8-4[8:1],,7,,6x,6,5,7,5,8h[4:1],,2,8,1,
{8}8-4[8:1]/2,,1-3[8:1],,6,,5x,5,4,6,4,7,{16}2x,3,4,5,8x,7,6,5,
{8}1b,1,2-5[8:1]/8-5[8:1],,,,3x,3,4,2,4,1h[4:1],,6,6,2,
{8}8,8,1^4[8:1]/7^4[8:1],,,,1xb,1xb-4[8:1],,1-7v6b[8:3],,3,3xh[4:1],,,,
{8}2,2,1,3,7,7,8,6,
{16}3,4,3,,2,,2,,6,5,6,,7,,7,,
{8}3-5[8:1],3,7-4[8:1],7,1-5[8:1],1,7,7,
{24}2,3,4,5,6,7,8,1,2,3,4,5-1[24:4],{16}6b-2[8:1],,,,,,,,
{8}3xh[2:1]/A8/D8f/E8/A7,,,,2>5[8:1],,2pp1b[8:5],,,,8,,8,,,,
{8}6xh[2:1]/A1/D2f/E2/A2,,,,7<4[8:1],,7V58b[3:1],,,,3,,2/1x,2/1x,2/1x,2/1x,
{8}3xh[2:1]/A8/D8f/E8/A7,,,,2>5[8:1],,2<5b[3:1],,,,4,,4x,5xV38[8:9],3x,5x,
{8}6xbV47[8:6],,,,,,,,,,{32}E1,B8,B4,E5,,,,,
{8}E7/E3/Cf,,,,
{8}3-5[8:1]/8h[8:1],,8h[8:1],,3-5[8:1]/8h[8:1],,8h[8:1],,
{8}7,7,5,6,4-1[8:1],5,,,
{8}2x-4[8:1]/8h[8:1],,8h[8:1],,2-4[8:1]/8h[8:1],,8h[8:1],,
{8}38,{16}2,1,2,,7-4[8:1],,3-8[8:1],,7x,,,,,,
{8}6-4[8:1]/1h[8:1],,1h[8:1],,6-4[8:1]/1h[8:1],,1h[8:1],,
{8}2,2,4,3,5-8[8:1],4,,,
{8}3/7-3[8:1],,1,,2^5[8:1],1,5,6bxw2[8:1],
{8},,,,{16}8,7,6,5,8,1,2,3,
{8}7b-1[8:1]/4h[8:1],,4h[8:1],,2-6[8:1]/4h[8:1],,4h[8:1],,
{8}7x-5[8:1],2,7,8,8-4[8:1]*-3[8:1],,,,
{8}2-8[8:1]/5h[8:1],,5h[8:1],,7-3[8:1]/5h[8:1],,5h[8:1],,
{8}2-4[8:1],{16}1,,2,,7,,7-1[8:1],,5x,,5,,,,
{8}2,4,3,5,2,4,1,1,
{8}7,5,6,4,7,5,8,8,
{8}1h[8:1],7h[8:1],3h[8:1],5h[8:1],2h[8:1],6h[8:1],5,7xh[8:7]/3-5-2-6-1b[8:5],
{8},,,,,,,,
{24}1bqq6pp5[4:5]/7,2,3,4,,,{8},,{8}2,,2,,,,4,,4h[2:1],,,,
{24}8bpp3qq2[1:1],7,6,5,,,{8},,{8}7,,7,,,,5x-8b[8:1],,5b,,,,
{16}3,,3,,5,,5,,4,,4,,6,,6,,3,4,3,,6,5,6,,3,4,3,,7,5,7,,
{16}2xb-6[8:1],1xb,2xb,1xb,2b,,,,{8}8,8,1,7,6x-4[8:1]/2x,,3,2x-8[8:1],,8,7xh[4:1],,
{8}8^3[4:1],,3^6[4:1],,6^1[4:1],,1^4[4:1],,
{8}4^7[4:1],,7^2[4:1],,2,,5,,
{8}8/2-6[8:1],,6-3-5[3:1],,7,,8,,
{8}1/7-3[8:1],,3-6-4[3:1],,2,,1,,
{8}2/8-6[8:1]*-5[8:1],,,,2x/8x-5[8:1]*-6[8:1],,,,
{8}4,8,3,7,2,6,1,5,
{8}8-3b[8:1]*-2b[8:1],,,,8x-2b[8:1]*-3b[8:1]/6x,,,,
{8}4b,,56,7b/4,,4/3,5/2b,,
{24}8bpp3qq4[4:5]/2,7,6,5,,,{8},,{8}7,,7,,,,5,,5h[2:1],,,,
{24}1bqq6pp7[1:1],2,3,4,,,{8},,{8}2,,2,,,,4x-1b[8:1],,4b,,,,
{16}2x,1,2,1,3,,3,,1,,1,,2h[8:1]/8h[8:1],,,,
{16}3x,,3,,1,,2,8,2,8,2,,6h[8:1]/1h[8:1],,,,
{16}7x,8,7,8,6,,6,,8,,8,,7h[8:1]/1h[8:1],,,,
{8}3x-5[8:1],,6,7x-1[8:1],,1,2xh[4:1],,
{8}1^6[4:1],,6^3b[4:1],,3^8[4:1],,8^5b[4:1],,
{8}5^2[4:1],,2^7b[4:1],,7,,4,,
{16}6,,6,,5,,E7,B7,3,,3,,4,,E3,B2,
{8}8h[32:1],8h[32:1],8h[32:1],8h[32:1],1xh[32:1],1xh[32:1],1xh[32:1],1xh[32:1],
{32}2xb/7xb,3x/6x,4x/5x,,,,,,{8},,2,4,1-5[8:1],5,
{8}1V73[2:1]`Cf,,,,,,,,
{32}2xb/7xb,3xb/6xb,4x/5x,,,,,,{8},,2,4,1-5b[8:1],5,
{8}1V73[2:1]`Cf,,,,,,,,
{32}2xb/7xb,3xb/6xb,4xb/5xb,,,,,,{8},,2,4,1-5[8:1]*V73[4:3],5,
{8}1`Cf,,,,,,,,
{8}1/5,5,2/6,2,3/7,7,8/4,4,1/5,15,48,48,3/7,37,26,26,
{4}1/5qq8[4:10],,,,
{4},,1,,
{4}1q5[2:1],,,,
{16}6,5,6,,4,,3,,2,,7,,6,,5,,
{16}4b,,,,2/5h[4:1],,,,A8,E1,E2,A2,A6,E6,E5,A4,
{16}8,1,2,3,7x,6,5,4,1x,2,3,4,5,6,7,8,
{16}1x,,,,3/7h[4:1],,,,A8,E1,E2,A2,A6,E6,E5,A4,
{16}8,1,2,3,4,5,6,7,8xw4[8:1],,,,,,,,
{8}2x>6[4:1],,6<2[4:1],,2x,,6x,,
{8},,6x<2[4:1],,2x>6[4:1],,6,,
{8}2x>6[4:1],,6<2[4:1],,2x,,6x,,
{8},,6x<2[4:1],,2x>6[4:1],,6,,
{16}1b,,,,7/4h[4:1],,,,A1,E1,E8,A7,A3,E4,E5,A5,
{16}1,8,7,6,2x,3,4,5,8x,7,6,5,4,3,2,1,
{16}8b-4[8:1],,,,18,,{8}2b-5[8:1],,26,7b-3[8:1],,
{8}78,1b-6[8:1],,15,4bw8[8:1],,,,
{8}2h[4:1],,1,,4h[4:1]/3,,1,1,
{8}3h[4:1],8,8,,5h[4:1]/4,,1,1,
{8}4h[4:1],,1,,6h[4:1]/5,,1,1,
{8}5h[4:1],8,8,,7h[4:1]/6,,1,1,
{8}28,,{16}3h[4:1]/7,,,,1x,8,7,6,4,3,2,1,
{16}7x,6,5,4,1,2,3,4,6x,7,8,1,4,3,2,1,
7x,6,5,4,8,1,2,3,5x,6,7,8,4,3,2,1,
7x,6,5,4,1,2,3,4,6x,7,8,1,5,4,3,2,
{8}7h[4:1],,8,,5h[4:1]/6,,8,8,
{8}6h[4:1],1,1,,4h[4:1]/5,,8,8,
{8}5h[4:1],,8,,3h[4:1]/4,,8,8,
{8}4x,6x,2x,5x,3x,7x,18,27,
{8}3b-5-2-6[8:9]*V52-8[8:9]/6b,,,,,,,,
,,,,,4b,,,
6bpp7-4[8:9],,1bqq5[8:7],,,,,,
,,,,,3b,,,
5b-7v2[8:8]/1bV74[8:8],,,,,,,,
,,,,,2b/7b,,,
1bh[4:1]/2bh[4:1],,,,7bh[4:1]/8bh[4:1],,,6b-4v2[8:4]/1b-7-5-3[8:4],
,,,,,D3f/A2/A3,,,
{8}2xb-8[8:1]/5xh[8:1],,5h[8:1],,7-3[8:1]/5h[8:1],,5h[8:1],,
{8}2x-4[8:1],7,2,1,1-5[8:1]*-6[8:1],,,,
{8}7-1[8:1]/4h[8:1],,4h[8:1],,2-6[8:1]/4h[8:1],,4h[8:1],,
{8}7-5[8:1],{16}3,,7,,2,,2-8[8:1],,4x,,4,,,,
{8}7,7,1x,6,1,5,1,4,
2,2,8x,3,8,4,8,5,
{8}7h[8:1],6h[8:1],8h[8:1],5h[8:1],1h[8:1],4h[8:1],2xqq8^1-6[4:3],3xq5b[8:5],
,,,,,,,,
{24}1b^6pp7-5[4:5]/6,2,3,4,,,{8},,{8}3,,3,,,,2,,2h[2:1],,,,
{24}8b-2v1-3[1:1],7,6,5,,,{8},,{8}6,,6,,,,7xw3b[8:1],,7b,,,,
{16}A8/E8f/E1/E5/E4/A4,,,,,,,,6,2,6,2,6,2,6,2,
{16}7,,1,,8,,{24}2,3,4,{16}8-4[8:1],,1,,,,,,
{16}2,,8,,1,,{24}7,6,5,{16}1,,8,,2,,2,,
{16}6,,6,,37,,4,5,4,,26,,2h[4:1]/6,,,,
{8}1x,1x,1x,1x,3^8[4:1],,8^5[4:1],,
{8}5^2[4:1],,2^7[4:1],,7,,4,,
{8}1/7-3[8:1],,3-6-4[3:1],,2,,1,,
{8}8/2-6[8:1],,6-3-5[3:1],,7,,8x,8x,
{16}8bh[8:6],,,,,,,,,,,,,,,,
{16}3bh[8:1],,4bh[8:1],,1bh[8:1],,8bh[8:1],,5bh[8:1],,6bh[8:1],,1bh[8:1],,8b,,
{8}2-6b[8:1]*-5[8:1]/7,,,,2-6b[8:1]*-5[8:1]/7,,,,
{8}8-4[8:1],,4,,17,17,2b/6b,,
{24}8b^3qq2-4[4:5]/3,7,6,5,,,{8},,{8}6,,6,,,,7,,7h[2:1],,,,
{24}1b-7v8-6[1:1],2,3,4,,,{8},,{8}3,,3,,,,2x,,2b/6bh[2:1],,,,
{16}4,5,4,5,4,5,4,5,4,5,4,5,4,,,,
{16}6,3,6,3,6,3,6,3,6,3,6,3,6b,,,,
{16}7-5[8:1]/2,,,,8-4[8:1]/7,,,,1-3[8:1]/8,,,,13,,,,
{16}6,,6,,6,,3,4,3,,3,,2/6h[4:1],,,,
{8}8^3[4:1],,3^6b[4:1],,6^1[4:1],,1^4b[4:1],,
{8}4^7[4:1],,7^2b[4:1],,2,,5,,
{16}3,,3,,4,,E2,B2,6,,6,,5,,E8,B7,
{16}3p6b[2:1],,,,,,,,Chf[2:1],,,,,,,,
{4}1bxs5[4:4]*pp2[4:4],,,,
{4},,{8},3b<2[2:3],,,
{8}2b,,1b<4[4:5],,
{8},,,,,,,,,2b>8[2:3],,,
{8}8b<2[2:3],,,,,,,,
{8},,,,,7b<4[8:3],,,
{8}3xb<6[8:3],,,,1b,,,3xb/7xb,
{8},6,4,{16}5,,3,,8x,,8xh[4:1],,,,
{8}4,6,4,6,E3,6,4,6,4,6,4,6,E3,6,4x,4x,
5,3,5,3,E7,3,5,3,
5,3,5,3,E7,3,5x,5x,
{8}2,2,4,4,5,5,7,7,
{16}1,2,3,4,5,6,7,8,{24}1,2,3,4,5,6,7,8,1,2,3,4,
{24}5-1[8:1],,,,,,7,,,,,,{16}8b,1xb,8b,1xb,8bh[32:1],,8bh[32:1],,
{16}2,,2,,6q4b[8:2],,6,,4,,,,,,,,
{8}2V48[4:1]/5,,1,,6V48[4:1],,7,,
{8}2V41[8:2],,1-5-8[4:1],,{24}A7/D7f/A6,,,,,,,,,,,,
{8}1V72b[4:1],,7,,5V36b[4:1],,3,,
{8}1x,,28,,3,3,4,4,
{8}2V48[4:1]/5,,1,,6V48[4:1],,7,,
{8}2V46[4:1],,6V48[4:1],,{24}1,,,,,,7b,,,,,,
{8}2x-4[8:1],,1x-5[8:1],,8x-6[8:1],,1x,,
{8}2z6[4:1],,6<2[4:1]*>2[4:1],,A7/E7/E6/A5f,,,,
{16}2,,2,,8,,8,1,8,,8,,2,,2,1,
{16}2,,2,,7,,7,1,7,1,7,,{24}2,3x,4x,8,7x,6x,
{32}2bx,3xb,4xb,5xb,8xb,7xb,6xb,5xb,{8},,6,6,{16}6,,1,8,
{24}2x,3,4,7,6,5,{8},3,3,3,{24}7x,6,5,2,3,4,
{8},7,7,{16}1,8,1,,6,,{24}2,3,4,8,7,6,
{16}2,,2,,5,,5,4,5,,5,,{24}2,3x,4x,8,7x,6x,
{32}2xb,3xb,4xb,5xb,8xb,7xb,6xb,5xb,{8},2,2,7,7,{16}1,8,
{24}2,3,4,5,6,7,8z4b[4:1],1,2,3,4,5,{16},,,,,,,,
{8}7xV51[4:1]/4x,,8,,3V51[4:1],,2,,
{8}7V58[8:2],,8-4-2[4:1],,{24}A1/D2f/E2,,,,,,,,,,,,
{8}8V27b[4:1],,2,,4V63b[4:1],,6,,
{8}8x,,71,,6,6,5,5,
{8}7h[4:3]/4>5[8:3],,,,,,{24}4bx,3x,2x,1x,,,
{8}7V53[4:1],,3V51[4:1],,{24}8,,,,,,2b,,,,,,
{8}4x-2[8:1]/8x^5[8:1],,8x-4[8:1],,4x-2[8:1]/8x^5[8:1],,8xw4[8:1],,
{8},,17,,A3/B3/E3/A5/B5f/E6,,,,
{16}7,,7,,1,,1,8,1,,1,,7,,7,8,
{16}7,,7,,2,,2,8,2,8,2,,{24}7,6x,5x,1,2x,3x,
{32}7bx,6xb,5xb,4xb,1xb,2xb,3xb,4xb,{8},,6,6,{16}6,,6,5,
{24}7h[4:1],,,8,1,2,{8}3b,{24}2h[4:1],,,1,8,7,6b,,,{8}2,2,
{8}6,6,4,{16}4,5,3,,3,,7,,7,,
{16}4,6,4,6,3,7,3,7,2,8,2,8,3,1,3,1,
{16}4xb-8[8:1],8xb-4[16:1],4xb,8xb,,,,,{24}1x,2,3,5x,6,7,1x,2,3,5x,6,7,
{16}E1f,,Cf,,E5f,,,,{12}8,1,7,3x,4xw8[8:1],2x,5b,,,
{1},,,,,,,{4},,,
{4}E3,,,,
,,,
,E7,
,,,B4
,,
,,B5,,,
,
,
,,,A6,
,E4,,B8,,
,,A3,,
,,,
,,,E3
,,,,E2,,
,,E8,,,
,E7,,
,,
E6/E4,,
,,
,
,
,,
{4}1/5,,6/2,,7xqq5[2:1]/3xqq1[2:1],,,,
{4}2/6,,3/7,,4x-1[2:1]`8x-5[2:1],,,,
{4}2/6,,5/1,,4xq1b[2:1]/8xq5b[2:1],,,,
{4}3/7,,2/6,,1x-5[2:1]/5x,,,,8/4,
{4},3/7,,6x-3[2:1]/2x-7[2:1],,,,
{4}8/4,,1/5,,2x/6xz2[2:1],,,,
{4}1/3,,2/8,,1x/7x,,6/8,,7/5,,6/4,,3bx<7b[2:1]`5x>1[2:1],,,,
{8}B2/B3/E3f/8h[2:1],,,,,,,,
{8}2h[2:1],,,,,A8/A1/E1f,,,
{8}B7/B6/E7f/4h[2:1],,B2/B3/E3f,,,,,,
{8}6h[2:1],,,,,E4f/A3/D4/A4,,,
{8}E6f/A6/D6/A5/1h[2:1],,,,,,,,
{8}3h[2:1],,,,,E8f/A7/A8/D8,,,
{8}E2f/A1/A2/D2/5h[2:1],,,,A7/D7f/A6,,,A2/D3f/A3,
{8},7,7,{16}1,8,1,,2b/7b,,,,,,
{8}Cf,,,,8x<5[2:1],,,,
{8},,,,1x>4[2:1],E7f,,,
{8}E5f,,E3f,,8x<5[2:1],,,,
{8},,,,1x>4[2:1],Cf,,,
{4}8<1[2:4],,,,,,,,
8<6-4>1[2:4],,,,,,,,
8<6-4-2^1[2:3],,,,,,,,
8-6-4-2<1b[2:3],,,,,,,,
{8}1/Cf,1,8,8,2,2,7,7,
3,3,6,6,4,4,5,5,
3,4,3,4,2,5,2,5,
1,6,1,6,8,7,8,7,
{16}1,2,6,5,1,2,6,5,2,3,7,6,2,3,7,6,
{24}2,3,4,8,7,6,2,3,4,8,7,6,{32}2x,3x,4x,5x,6x,7x,8x,1x,2xv3-1-4[8:11],3x,4x,5x,6xv7-5-8b[8:10],7x,8x,1x,
{8},,,,,,,,
{8},,,,,{16}3,7,3,7,3,,
{8}E7,,E6,,E4,,E3,,
B7h[4:3],,,B2h[8:3],,,C,,
18,,27,,36,,4>5[8:5]/5<4[8:5],,
,,,,,,,,
||Chapter
3
||Here
we
go
{8}2>5[8:1],7,2,6,6-2[8:1],3-5[8:1],6,3,
{8},38,,7h[8:2],{16}5,4,3,2,8,7,6,5,
{8}3>8[8:1],6,3,7,7-5[8:1],8-4[8:1],7,8,
{8},3/7,,1h[8:2],{16}4,5,6,7,1,2,3,4,
{8}7<4[8:1],2,7,3,3-7[8:1],6-4[8:1],3,6,
{8},61,,2h[8:2],{16}4,5,6,7,1,2,3,4,
{8}6<1[8:1],3,6,2,2-5[8:1],8-4[8:1],2,8,
{8},26,,1h[8:2],{16}8,7,6,5,8,1,2,3,
{8}8b,7b,6b/2x,,7-4[8:1],3-8[8:1],7,
{8}3,,2/6,,7h[8:2],{16}8,1,2,3,8,7,6,5,
{8}3-7[8:1],7,3,5,6-1[8:1],2-5[8:1],6,2,
{8},7h[8:1],3h[8:1],5h[8:1],{16}2,6,2,6,1b,,,,
{8}8/2,2,{16}6,4,6,4,7,,7,,1,,1,8,
{16}1,,1,,7,,7,,{16}2,1,2,,6b,,6b,,
{16}17,,7,,3,5,3,5,2,,2,,7,,5b/7b,,
{16},,2b/4b,,,,{24}1,2,3,4,5,6,7,8,1,2b/6b,,,,,,
{8}1b/7b,2b/6b,3b/5b,,1-5[8:1],5,1,7,
{8}7-3[8:1],3,7,1,{16}1,2,3,4,1-5[8:1],8,7,6,
{8}1,8,8<5[8:1],3,8,2,2-6[8:1],6,
{8}2,8-4[8:1],4,8,2,2,{16}15,,,,
{32}2x/7x,3x/6x,4x/5x,,,,,,{32}1xb,,,,,,,,
{32}2x/7x,3x/6x,4x,5x,,,,,{32}8xb,,,,,,,,
{32}2x/7x,3x,6x,4x,5x,,,,{32}1xb,,,,,,,,
{32}2x,7x,3x,6x,4x,5x,,,{32}8xb,,,,,,,,
{32}2xb,7xb,3x,6x,4x,5x,,,{32}1xb,,,,,,,,
{32}2xb,7xb,3x,6x,4xb,5xb,,,,,,,{8}3b-8[8:1]/7b-4[8:1],
{8},3b/7b,,1bw5[8:1]/5,,,,,
{16}2-6b[8:1],7,2,7,{8}2b,,8-4[8:1],4,8,2,
{8}2-6[8:1],6,2,8,{16}8,7,6,5,8-4[8:1],1,2,3,
{8}8,1,1>4[8:1],6,1,7,7-3[8:1],3,
{8}7,1-5[8:1],5,1,7b,7b,{16}7b,,7b,,
{48}2xb-8-4^5-3[4:5]/8xb,,7x,3x,6x,,{8}4x/5x,,,6h[8:1],,6h[8:1],,,,8h[8:1],,8h[8:1],,,,
{48}7xb-1-5[4:3]/1xb,,2x,6x,3x,,{8}5x/4x,,,4h[8:1],,4h[8:1],,,,36,,2,2,7,7,
{16}1,8,1,8,1,8,1,8,1,8,1,8,1,8,1,8,
{16}1,2x,7,6x,1,2x,7,6x,{24}2,3x,4x,8,7x,6x,{32}2,3,4,5,6,7,8,1,{8}2b,,,,,,,,,,8z4b[8:2],,,,,,
{16}3,5,3,5,2,6,2,6,1,7,1,7,2,,2,,
{16}8,,8,,5,,6,4,6,,3/7,,{16}2xbh[32:1],8xbh[32:1],2xbh[32:1],8xbh[32:1],
{16}3,4x,7,6x,3,4x,7,6x,{24}2,3x,4x,8,7x,6x,2,3x,4x,8,7x,6x,
{8}2,2,25,2,26,2,27,2,
{8}1b^4[8:1]/8b^5[8:1],,,,3x-8[8:1],3,7-3[8:1],7,
{8}2-5[8:1],2,7-3[8:1],7,1,1,8,2,
{8}6-1[8:1],6,2-6[8:1],2,7-4[8:1],7,1b,1b>4[8:1],
{8},1b<6[8:1],,5xbs1b[8:2],,,,,
{16}2,8,2,8,3,7,3,7,4,6,4,6,3,,3,,
{16}7,,7,,1,,1,,7,8,7,,{16}1xbh[32:1],6xbh[32:1],1xbh[32:1],6xbh[32:1],
{16}2,3x,8,7x,2,3x,8,7x,1bx,,2x/8x,,3xh[8:2]/7x,,,,
{24}8,7x,6x,2,3x,4x,8,7x,6x,2,3x,4x,8b/A5f,,,{8},,,
{16}2,6,2,6,2,6,2,6,3,7,3,7,3,7,3,7,
{16}4,8,4,8,4,8,4,8,5,1,5,1,5,1,5,1,
{32}A4,A3,A2,A1,A8,A7,A6,A5,E4,E3,E2,E1,E8,E7,E6,E5,B3,B2,B1,B8,B7,B6,B5,B4,D4,D3,D2,D1,D8,D7,D6,,
{1}D5f,
{8}3,4,3,6,3,4,3,7,
3,4,3,8,3,4,3,1,
3,7,5,6,3,6,5,6,
2,6,5,6,1,6,5,6,
{8}8b/7b,1b/7b,2b/7b,,2b/4b,2b/5b,2b/6b,3b-8[8:1],
{8}7b-4[8:1],3b,7b,1b,1bw5[8:1],,,,
{8}3b,2,18,{16}7,2,7h[8:1],,5h[8:1],,3h[8:1],,
{8}1b,,{24}2b/1h[8:1],3,4,{16}5,,{24}7b/8h[8:1],6,5,{16}4,,1-5b[8:1]/2-5[8:1],,6/5<3[3:1],,Cf,,
