&title=文明開化
&artist=hamood
&first=0
&des=hamood
&lv_5=14+
&inote_5=(155){8},,,,,,,,,,,,,,,,,,,{16},37,,1>4[8:1],,,,1<6[8:1],,,,1q6[8:1],,,,1p4[8:1],,,,1-7[8:1]*-6[8:1],,,,1-4[8:1]*-3[8:1],,,,1w5[8:1],,,,1b,,,,8q5[8:1],,,,8p3[8:1],,,,8>3[8:1],,,,8<5[8:1],,8b,,8,,1b>4[8:1],,1,,7b-3[8:1],,7,,2b-6[8:1],,2,,4,,5>2[8:1],,,,5<8[8:1],,,,5-2[8:1],,,,5-8[8:1],,,,5w1[8:1],,,,5,,,,37,,,,46,,1b/2b,,,,35,,8b/7b,,,,1-7[8:1]/6-2[8:1],,,,1b/6b,,,,6b/4b,,5b/3b,,2b/7b,,1b/8b,,3b/6b,,1b/8b,,,,{32}8b-4[8:1]/2,7x,6x,,,,,,5b>7[4:1]/8,6x,7x,,,,,,3h[4:1]/5b,,,,,,,,,,,,{16}2,,{32}1/2>5[8:1],8x,7x,,,,7,,{16}2-6[8:1],,8,,2/7V15[4:1],,,,5-1[8:1],,3,,{32}2bV48[4:1],3x,4x,,,,,,{16}8-4[8:1],,8,,{32}7bV51[4:1],6x,5x,,,,,,{16}3,,2,,{32}2,3,4,,{16}8>5[4:1],,17,,6h[4:1]/8,,,,,,7b,,,,18,,2,1,3<6[8:1],,3,,7>2[8:1],,7,,4,,4,,35,,3<1[4:1],,24,,2h[4:1],,,,,,2>5[8:1],,7,,{32}2/7,8,1,,,,,,{16}2v5[8:1],,7,,{32}2/7,8,1,,,,,,{16}2-6[8:1],,6,,{32}2/6,7,8,1,2,3,4,5,{16}6h[8:1],,,,1b/8b,,{48}1b/8b,2b/7b,3b/6b,4b/5b,,,,,,,,,,,,,,,{32}1b-5[8:1]/7,2x,3x,,,,,,4b<2[4:1]/1,3x,2x,,,,,,6h[4:1]/4b,,,,,,,,,,,,{16}7,,{32}8/7<4[8:1],1x,2x,,,,2,,{16}7-3[8:1],,1,,7/2V84[4:1],,,,4-8[8:1],,6,,{32}7bV51[4:1],6x,5x,,,,,,{16}1-5[8:1],,1,,{32}2bV48[4:1],3x,4x,,,,,,{16}6,,7,,{32}7,6,5,,{16}1<4[4:1],,82,,3h[4:1]/1,,,,,,2b,,,,81,,7,8,6>3[8:1],,6,,2<7[8:1],,2,,5,,5,,4,6,3,5,2v7[8:1]*<3[4:1],,31,,2,,,,8>3[8:1],,4,,{32}4b/8b,5,6,,,,,,{16}1V35[8:1],,5,,{32}5b/1b,6,7,,,,,,{16}2-6[8:1],,6,,{32}6b/2b,7,8,1,2,3,4,5,6h[4:1]/7h[4:1],,,,,,,,{48},5b/8b,1b/4b,{16}3b-6[8:1]/2b-7[8:1],,,,,,,85,,1,4,2,5,3,6,4,7,4,7,5-1[8:1],6,5,6,5,,{32}8,7,,,7,,,,26,,,,{24}2V48[4:1]/6,37,48,1,2,3,4/2,,,{16}6b,,,,1,2,73,6,5,4,31,2,3,4,85,7,6,5,24,,3,1,2,8,1,7,{32}5w1[8:1],6x,,,4,5x,,,{16}5b,,,,,,3,4,2,1,2,8,5,6,8,7,8,7,1,7,2,6,3,5,4q8[8:1],,5,,4/5p1[8:1],,,,3b/5b,,,,3V15[4:1],,4,4,3,,7,,6V84[4:1],,5,5,6,,2,,2,,3b/1b,,7,,8b/6b,,4b/5b,3b/6b,,1b/8b,2b/7b,,,,{32}1b-5[8:1]/5b,26,37,,,,,,1b/4b<2[4:1],3,2,,,,,,{16}2b,3,4,5,6,,,,1<6[8:1]/7,,{24}2,3,4,1-5[8:1],,,{16}5b,,1V73[4:1],,3b,,1>4[8:1],,2b,,1
V74[4:1],,6b,,1-4[8:1],,4b,,1V73[4:1],,6b,,1,,3b,,2,,2b<4[4:1],,3,,4b,,,,,,2,4,2b,4,8>3[8:1],,4b,4,8<5[8:1],,6b,,8V25[4:1],,2b,,8,,7b,,1,8,7b,6,5>7[4:1]/3,,4b,,6,,,,6v1[8:1],,2b/6b,,{32}2b/6b,3,4,,,,,,{16}2v5[8:1],,2b/6b,,{32}2b/6b,7,8,,,,,,{16}3b/7b,,2b/6b,,3b/7b,,{32}37,26,15,48,37,6,5,4,3,2,1,8,7,6,5,4,3,2,1,8,{16}7b/3b,,,,64,,35,,2v5[8:1]/4,,1,1,2,,7,,64,,7v4[8:1]/5,,8,,7,,8,,1,,2,4,2,4,3-1[8:1],,,,35,,4,,4-8[8:1],,5,,46,,5,,5-7[8:1],,4,,35,,4,,4-8b[8:1],,7,,47,6,5,4,3,,,,6,5,4h[8:1]/7h[8:1],,,,3,8,2h[8:1]/1h[8:1],,,,{48}1b/2b,3b/8b,4b/7b,{16}5b/6b,,,5,7,,45,,2,4,,3,6,2,7,18,,,,7,5,,64,,53,,4,5,3,,35,,24,,3,8V25[4:1],7,6,5,8b/4b,,,,,,7,5,1b<6[8:1],,,,,,2,,8b>3[8:1],,,,,,6,7,1b-5[8:1]/8b-4[8:1],,27,,8b/1b,,,,1,8,2,7,3-8[8:1]/6-1[8:1],,45,,,,,,{24}2,,4,,3,,6,,4,,5,,4,,6,5,7,,3,,5,4,6,,3,2,1,8,7,6,3,2,1,8,7,6,45,3,2,1,8,7,{16}6b/4b,,,,2-6[8:1],,1,,2b/8b,,7<4[8:1],,4-8[8:1],,7,,2b,,1,,71,,76,,2b/8b,,23,,16,,75,,3b/8b,,2b/4b,,6-2[8:1],,5,,4b/6b,,3>8[8:1],,8-4[8:1],,3,,7b,,6,,5b,3,4,2,6b<2[4:1],,8,,{24}1b,2,3,4,5,6,7bx,,,,,,{16}26,,3,5,1b,6,4,8,27,,34,,5b/6b,,18,,2,4-8[8:1],,3b,,45,,7,1w5[8:1],,28,,1b,,,,3x/8,7,2x/6,5,1x/4,,8/5x,1,2/6x,3,7/4x,,8x/5x,7x/4x,3x/6x,2x/5x,1x/4x,,1x/4x,2x/5x,6x/3x,7x/4x,8x/5x,,{32}1,2,3,4,8,7,6,5,{16}4bx/1bx,,,,{32}1b/4bp8[8:1],25,36,,,,,,4b/7bq5[4:1],6,5,,,,,,{16}4b,5,6,7,8h[4:1],,,,1<6[8:1],,{24}2,3,4,1-5[8:1],,,{16}5b,,1V73[4:1],,3b,,1>4[8:1],,2b,,1V74[4:1],,6b,,1-4[8:1],,4b,,1V73[4:1],,6b,,1,,3b,,2,,2b<4[4:1],,3,,4b,,,,,,2,4,2b,4,8>3[8:1],,4b,4,8<5[8:1],,6b,,8V25[4:1],,2b,,8,,7b,,1,8,7b,6,5>7[4:1]/3,,4b,,6,,,,6v1[8:1],,2b/6b,,{32}2b/6b,3,4,,,,,,{16}2v5[8:1],,2b/6b,,{32}2b/6b,7,8,,,,,,{16}3b/7b,,2b/6b,,{32}3b/7bh[4:1],4,5,6,,8,1,2,3bh[8:1],6,5,4,,2,1,8,7bw3b[8:1]/3b,,,,,,,,{16},,,,28,,{24}2,3,4,8<5[8:1],,,8,,,{16}4/8,3,2,1,{24}8-4[8:1],7x,6x,5x,4x,3x,{16}2/8-6[8:1],,,2,8V25[4:1],,1,,8,,7b,,,,7b,,{16}17,,{24}7,6,5,1>4[8:1],,,1,,,{16}5/1,6,7,8,{24}1-5[8:1],2x,3x,4x,5x,6x,{16}7/1-3[8:1],,,7,1<4[4:1],,8,,1,,2b,,,,2b,,13,,{24}1,2,3,5<8[8:1],,,5,,,{16}15,2,3,4,{24}5-1b[8:1],6x,7x,8x,1x,2x,{16}3b/5b-8b[8:1]*-7b[8:1],,,,5b-2b[8:1]*-3b[8:1],,,,5bw1b[8:1],,,,5b,,,,3V14[4:1]/5,,,4,3,,5,,6V85[4:1],,,5,6,,4,,3,,2,4,35,,21,,64,,78,,1h[8:1]/8h[8:1],,,,{48}1b/8b,27,36,{16}54,,,4,{24}5,2,5,{16}2,6,4,8,5,7,{24}4,6,4,{16}6,3,52,,18,,6,5,6,4b/7b,,25,,{48}1b/8b,2b/7b,3b/6b,4b/5b,
