&title=True Blue
&artist=DJ Taka
&first=-0.4099999
&lv_5=14
&des_5=WYBXXJ
&inote_5=
(164){4},,,,{1}1h[1:2],
8>4[2:1],
7h[1:2],
6<2[2:1],
3h[1:3],
4>8[2:1],
7-4[2:1],
{4}2<5[4:3],4,3,2,
{16}1b-5[2:1],,,,,,,7,{2}7,
{16}8-4[2:1],,,,,,,2,{2}2,
{8}3h[4:1]/5h[4:1],,,4h[4:1]/6h[4:1],,,{4}7h[4:1]/5<3[1:1],
,5,6,7,
{8}8h[4:1],,,7h[4:1]/1h[4:1],,,{4}2/6>3[4:1],
3>8[4:1],8<5[4:1],5-1[8:1],2w6[8:1],
{1}2b,
{4}7h[4:1],6,{8}1,2,3,4,
5b/6b,7,{16}3,4,,4,{8}2,2,{16}6,5,,5,
{8}7,7,{16}2,1,,1,{8}3,4,5,6,
8b/7b,1,{16}2,4,,4,{8}3,6,4,7,
1b/2b,8,{16}7,5,,5,{8}6,3,5,2,
7b/8b,6,6,6,5b/4b,3,3,3,
{16}2b/1b,,,6,5b/7b,,,3,{8}4b/2b,1,{16}6,5,6,5h[16:13],
,,,,,,,,{4}4-8[8:1],4,
{8}1b/2b,{16}3,4,1,8,5,6,2,1,{8}3h[8:1],{16}7,4,5,2,
8,1,6,5,8,1,4,3,7,8,{8}6h[8:1],{16}1,5,3,7,
2,4,1,8,5,6,3,4,2,8,5,6,4,7,1,8,
2,4,3,5,4,6,5,7,3,1,2,8,1,7,8,6,
2,4,3,5,1,8,3,4,1,7,{8}5h[8:1],{16}6,2,8,4,
6,5,8,1,4,3,6,5,8,1,7,2,6,3,5,4,
7h,8,7,6,7,8,7,6,5h,6,7,6,5,6,7,6,
5,4,6,3,7,2,8,1,7,8,6,1,5,2,4,3,
{4}5b-1[8:1],5,4V28[4:1],8>4[4:1],
{8}5,6,7,8<5[8:1],,8/4,{4}3V14[4:1],
5,{8}7,7-3[8:1],,7/1-5[8:1],,1/8h[8:3],
,,{4}6-2[8:1],6/8-4[8:1],8/1h[4:1],
3-7[8:1],3/2-5[8:1],2/1-6[8:1],1/3-8[8:1],
3/5,{8}7,7-4[8:1],,3,{4}3-8[8:1],
5-1[8:1],{8}2,2-6[8:1],,8,{4}8h[4:1],
{16}3,4,3,4,{8}2,{16}6,5,6,5,{8}7,{16}1,2,3,4,
{8}5/7b,7,6/8,{16}5,4,,8,{8}1,{4}7/2,
{8}2,2,3/1,{16}4,5,,1,{8}8,{4}2/7,
{8}8,8,7/1,{16}6,5,,3,{8}4,{4}2/5,
{8}1,1,2/8,{16}3,4,,6,{8}5,{4}4/7>2[8:1],
7/2,3p6[8:1],3/6,5v4[8:1],
5/4,1>6[16:3],6/1,8-3[8:1],
8/3>6[8:3],{8}4,4h[8:5],,,,,{4}8h,
8h,{8}8/5,8/4,8/3,8/2,
{1}1b-5[2:1]/8b-2[2:1],
5-8[2:1]/4z8[2:1],
5>2[2:1]*<8[2:1],
3>4[2:1]*-7[4:1],
6qq8[2:1],
3V51[2:1],
8p1[2:1],
{4}7-3[4:1],3>5[4:1],4,3-8[8:1],
3b/7b,{8}5,5h,,5h,,5h,
,6h,,6h,,6h,,6h,
1,2,3,4-8[4:1],,8<5[4:1],,5>2[4:1],
,7,{4}7,{2}6-8[8:1]*-4[8:1],
{4}1b/8b,2/3,4/5,6/7,
1/2,{16}3/4,,,6,{8}5,7,4/3,{16}2,1,
{8}3,3,4,4,5,5,6,6,
{16}1,2,3,4,5,6,7,8,{32}1,2,3,4,5,6,7,8,{4}1,
{16}2b,1,2,1,3,4,3,4,1,8,5,6,2,4,1,8,
3,4,3,6,5,6,3,4,2,1,3,8,4,7,5,6,
3,4,1,8,5,6,3,1,4,5,2,1,4,5,2,1,
3,6,5,6,2,6,5,6,1,6,5,6,8,6,5,6,
2,1,3,5,4,6,5,7,1,8,2,4,3,5,4,6,
2,1,3,6,5,7,3,4,2,7,8,6,3,5,3,5,
2,1,3,8,4,7,5,6,3,4,2,5,1,6,8,7,
2,1,2,3,2,1,2,3,{8}2,8/7,6/5,3/4,
2b/1b,{16}7,8,{8}7h[8:1],{16}5,6,5,6,1,8,3,4,1,8,
3,4,2,6,5,7,1,8,2,4,3,5,4,6,5,7,
2,1,2,1,3,4,3,4,2,1,3,4,2,1,3,4,
{8}2h[8:1],{16}6,5,{8}6b,{16}3,4,{8}3b,{16}7,8,{8}7b,{16}2,1,
{8}2b-6[4:1],,,,,,,8,
8b-4[4:1],,,,,4/5,6/4,7/4,
8b/4b,,,3/7,1b/5b,,,3/4,
{4}5b/2b-6[8:1],2b/8b-4[8:1],{8}8b/1b,1b,{16}2,3,2,3,
{1}1bqq5[4:3],
E
