&title=Sulfur
&artist=ぺのれり
&first=-0.2
&lv_5=13+
&des=Cassandraaa
&inote_5=(182)
{8}
,,,,,1,8h[16:5],1h[8:3],,,,,1h[8:4],,,,,,,,,
8,1h[16:5],8h[8:3],,,,,8h[8:4],,,,,,,
{16}
1x,2,3,4,5h[8:9],,B8,,B7,,,B2,,,B3,,,,6hx[8:5],,,,,,5,,4,,3h[4:1],,,,
8x,7,6,5,4h[8:9],,B1,,B2,,,B7,,,B6,,,,3hx[8:6],,,,,,4,,5,,
6-2[8:1],,,,6b,,,,
1-5[8:1],,,,1,,1x<6[8:1],,,,1>4[8:1],,,,1s5[4:1],,,,1,,2,,3,,
7x,6,5,4,8,1,2,3,
8-4[8:1],,,,8,,8x>3[8:1],,,,8<5[8:1],,,,8z4[4:1],,,,8,,7,,6,,
2x,3,4,5,1,8,7,6,
1-5[8:1],,,,1,,1x-6[8:1]*-7[8:1],,,,1-4[8:1]*-3[8:1],,,,1v7-5[4:1],,,,1,,2,,3,,
3x,5x,4,6,5,7,4,6,
8-4[8:1],,,,8,,8x-3[8:1]*-2[8:1],,,,8-5[8:1]*-6[8:1],,,,8v2-4[4:1],,,,8,,7,,6,,
6x,4x,5,3,4,2,5,3,
6h[4:5],,,,,,,,1-4[8:1],,,,1,,,,3-8[8:1],,,,3,,,,6,,71,,82,,
1h[4:1]/3h[8:9],,,,,,C,,,,,,,,,,5h[8:1],,,,
3,5,4,6,5,7,4,6,1,8,3,6,2,7,4h[8:1],,,,45,,5,4,,,5h[8:1]/6h[8:1],,,,3h[8:4]/4h[8:1],,,,C,,,,,,
78,,8-4-2[4:1]/1,,12,,8hb[4:1],,,,,,1-5[8:1],,2,,,,
3-7[8:1],,4,,,,8-4[8:1],,1,,,,B1,,
1x,2,3,4,8,7,6,5,4h[4:3],,,,3,,,,3,,,,3,,
3,4,2,5,4,7,4,5,1,5,3,8,4,6,Cf,,,,
1x,8x,1xh[4:1],,,,6,5,6h[4:1],,,,8,,1pp4[8:3],,,,1,,8,,
7pp2[8:3],,,,7,,5x,,4h[4:1],,,,6x,5x,6x,,3,4,3h[4:2],,,,B8/E8,,7xh[8:5],,,,B2,,B1,,1xh[8:1],,,,
E2,B7,B2,B6,B3,E6,4x,5x,
4xh[4:1],,,,7,8,7h[4:1],,,,5,,4qq1[8:3],,,,4,,5,,
6qq3[8:3],,,,6,,8x,,1h[4:1],,,,7x,8x,7x,,2,1,2h[4:2],,,,B5/E6,,6xh[8:5],,,,B3,,B4,,4xh[8:1],,,,
E4,B6,B3,B7,B2,E8,
1x>5[4:1],,,,5<1[4:1],,,,1q5[4:1],,,,5q1[4:1],,,,1V35[4:1],,,,5V71[4:1],,,,1,,,,B7,B6,B5,B4,
3xh[4:1],,7,6,5h[4:1],,2,3,4h[4:1],,8,7,6h[4:2],,2h[4:2],,,,,,,,,,
6,2,7,3,8,4,7,3,
6b,,7b/1b-5[8:1],,8b/2b,,3b/1b,,,,,,
3b/1b,,2b/8b-4[8:1],,1b/7b,,6b/8b,,,,,,
6x/B3,,2x/B7,,8x/B1,,1xh[4:1]/C,,,,,,
1,2,3,4,5/8,7,6,5,4/8,1,2,3,4xb/5xb,,4b/5b,,4b/5b,,4b/5b,,,,
4,3,2,1,8,7,6b,,4,5,6,7,8b/Cf,,,,
1x,8,7,6,5,4,
3/8-5[8:1],,,,8/6-2[8:1],,,,4-8[8:1],,4<3[4:2],,4x,,4x,,B2,,,,B8,,,,
8x,7,6,5,1,2,3,4,
5/1-4[8:1],,,,1/3-7[8:1],,,,5-1[8:1],,5>6[4:2],,5x,,5x,,B7,,,,B1,,,,
4x,3,2,1,5,6,7,8,
1/5-8[8:1],,,,5/7-3[8:1],,,,1-5[8:1],,1<2[4:2],,1x,,1x,,B3,,,,B5,,,,
5x,6,7,8,4,3,2,1,
8/4-1[8:1],,,,4/2-6[8:1],,,,8-4[8:1],,8>7[4:2],,8x,,8x,,B6,,,,B4,,,,
1x,2,3,4,5,6,7,8,
1-5[8:1]*-6[8:1],,,,1,,,,4>1[8:1],,8<5pp1[4:2],,4,,8,,E3,,,,E4,,,,
5x,4,3,2,1,8,7,6,
5-1[8:1]*-2[8:1],,,,5,,,,8<5[8:1],,4>1pp5[4:2],,8,,4,,E7,,,,E8,,,,
7x,5x,6,4,5,3,4,2,
5h[8:5],,2-6[8:1],,3,,2b,,,,,,
4h[8:5],,7-3[8:1],,6,,7b,,,,,,
5h[8:1]/6h[8:1],,,,3h[8:1]/4h[8:1],,,,
1-5[8:1],,,,1,,1x-6[8:1]*-7[8:1],,,,1-3[8:1]*-4[8:1],,,,1,,,,,,
8<4[8:1]/4>8[8:1],,,,8q4[8:1]/4q8[8:1],,,,,,,,
3x,,3,,2,,3/E8/B8,,,,B6,,,,E8/B8,,,,B6,,,,E8/B8/3h[4:1],,,,B6,,2,,,,
6x,,6,,7,,6/E2/B1,,,,B3,,,,E2/B1,,,,B3,,,,E2/B1/6h[4:1],,,,B3,,7,,,,
3x,,3,,4,,5>2[8:1]/E8/B8,,,,B6/5,,,,E8/B8/1>4[8:1],,,,B6/1,,,,,,
6x,,6,,5,,4<7[8:1]/E2/B1,,,,B3/4,,,,E2/B1/8<5[8:1],,,,B3/8,,,,
3xh[4:2],,,,B1,,B7,,6xh[4:2],,,,B8,,1x,2,3,4,
5<4[4:8],,,,B3,,B2,,,,B1,,B8,,,,B7,,B6,,,,,,Ch[4:1],,,,,,,,
4<3[4:8],,,,B2,,B1,,,,B8,,B7,,,,B6,,B5,,,,,,Ch[4:1],,,,,,,,
3<2[4:8],,,,,,B2,B1,B8,,,,,,B8,B7,B6,,,,,,B6,B5,B4,,,,,,,,
2>1[4:7],,,,,,B1,B8,B7,,,,,,B7,B6,B5,,,,,,B5,B4,B3,,,,,,,,
3<6-2<7[4:7],,,,,,B8,,B1,,,,B2,,E3,,,,B7,,,B6,,,E6,,,B3,,,E4,,
4xh[8:5],,,,,,B4,B5,E6,,E7,B6,B5,E5,E1,B1,B2,E3,E1,B8,B7,E7,E3,B3,B4,E5,
Cf,,,,5x,4x,5xh[8:5],,,,4h[8:3],,,,,,,,3/6,,2-5[8:1]/7-4[8:1],,,,2b/7b,,,,
6,,7,,8V64[4:1],,1,,8hb[4:1],,,,,,
3-7[8:1],,2,,3b,,8-5[8:1],,1,,8b,,1-4[8:1],,2,,1b,,2-6[8:1],,3,,2b,,
,,Ch[4:1],,7x,6x,5xhb[4:1],,2,3,4hb[4:1],,6,7,8hb[4:1],,3,2,1b,,6,4,8b,,3,5,
1b,2,3,4,8,7,6,5,4/Cf,,,,,,,,,,
{8}
8,1h[16:5],8h[8:3],,,,,8h[8:4],,,,,,,,,
1,8h[16:5],1h[8:3],,,,,1h[8:4],,,,,,,
{16}
8x,7,6,5,4h[8:9],,,,B1,,B2,,,,B7/B6,,,,3hx[8:5],,,,,,4,,5,,6h[4:1],,,,
1x,2,3,4,5h[8:9],,,,B8,,B7,,,,B2/B3,,,,6hx[8:6],,,,,,5,,4,,
3-7[8:1],,,,3b,,,,
8-4[8:1],,,,8,,2-5[8:1],,,,2/7-4[8:1],,,,7/1pp5[8:3],,,,71,,,,,,
7,,46,,35,,2h[8:9]/4h[4:1],,,,,,C,,,,,,,,,,8h[8:1],,,,
2,8,1,7,8,6,1,7,4,5,2,7,3,6,1h[8:1],,,,
18,,18,,,,8h[8:1]/7h[8:1],,,,2h[8:4]/1h[8:1],,,,C,,,,,,
28,,16,,37,,4b/5bh[4:2],,,,,,E8/B8,,3bh[8:3],,,,B1/E2,,6bh[8:3],,,,
B5/E6,,2bh[8:3],,,,C,,
8x,7,6,5,1,2,3,4,5h[4:3],,,,6,,,,6,,,,6,,
6,5,7,4,8,3,1,2,8,1,7,2,6,3,5,4,B6,B3,
E
