&title=Clash of Colors
&artist=渡部優衣、阿部里果、斉藤佑圭、浅倉杏美
&first=0
&des=DfC
&lv_5=13+
&inote_5=(200)
{1},{8},,,{16},
{1}4w8[2:3],,
{8}57,56,57,5h[4:1]/6,,,24,34,
24,3/4h[4:1],,,36,,45,,
2bV48[2:1]/7bV51[2:1],,,,,,,,
4b/5bv6[2:1],,,,,,,,
3bqq5[1:1]/6bpp4[1:1],,,,,,,,
,,,,45,{16}3,4,2h[8:1],,,,
17,,6,,28,,3,,6,4,6,4,7,3,7,3,
{8}2b-5[8:1]/8b-5[8:1],2b/8b,2b/8b,,,,,,
34,2,17,1>4[4:1]/7,,4<7[4:1],,7>2[4:1],
,5,6,7,48,3,25,7h[4:1],
,6,58,1<6[4:1],,6>3[4:1],,3q8[4:1],
,1,2,3,4v1[8:1]*v7[8:1]/5,,,,
65,7,82,8<5[4:1]/2,,5>2[4:1],,2<7[4:1],
,4,3,2,51,6,74,2h[4:1],
,3,41,8>5[4:1],,6,7,8,
{6}68,12,37,34,57,16,
{8}2/1h[4:1],,2,,82,,72,,
5h[4:1]/2,,2,5,2,4,2,6,
6h[4:1]/3,,3,,73,7,3,8-5[8:3],
3,,3,,3,6h[4:1],3,,
8h[4:1]/4,,4,5,5-7[8:1]/4,,4,,
84,,41,1v7[4:1],4,,4,4,
53,,64,,7,7h[4:1],5,5,
64,3,5,7q4[4:1]/2p5[4:1],,72,,,
8b/1b,,1/2-4[8:1],,4,,35,6h[4:1],
,8,17,7>2[8:1],,3<2[8:3],,8,
8h[4:1],,,,4,4-1[8:1],,6qq7[2:1],
,,2,2,,3,48,,
1h[8:3],,3,3-6[8:1],,2-5[8:1],,1,
1p8[8:3],,7,,,6,35,,
7h[8:3],,5,5-8[8:1],,1>4[8:1],,6,
6h[4:1],5,5,,3,24,24,,
1b-7[8:1]/7b-3[8:1],,,,4bq8[8:1]/8bq4[8:1],,,,
1b/2b,,7b/8b,,36,4h[4:1]/5h[4:1],,,
57,,1,28,,5,34,,
2,17,,8,3h[8:1]/8h[8:1],,25,,
1,37,,6,48,,3,15,
,7,4-1[8:1]/5-8[8:1],,45,,3qq6[4:3],,
,,7h[16:1],7h[16:1],8h[16:1],8h[16:1],1qq3[4:3],,
,,3h[16:1],3h[16:1],4h[16:1],4h[16:1],5h[8:3],,
6,6v1[8:1],,4,,2,2h[4:1],,
8,,46,7h[4:1],,,5<8[8:1],4,
3,2>5[8:1],1,8,7>2[8:1],6,5,4,
3,2,{16}1,8,1,8,{8}1<6[8:1],2,3,4>1[8:1],
5,6,7<4[8:1],8,1,2,3,4,
{16}6,5,6,5,7,6,7,6,{8}58,5-1[8:1]/8-5[8:1],,5b/8b,
,,34,,26,2-5[8:1]/6-2[8:1],,2b/6b,
,,17,,5h[4:1]/6h[4:1],,,,
2h[4:1]/4h[4:1],,,,1/8<1[2:1],,,4h[2:1],
,,,,45,45,,6h[8:1],
3h[8:1],6,27,27,1v4[8:1]*q5[8:1],,,,
8-4[8:1]*-6[8:1],,,,1b-5[8:1]/2b,,18,7,
6-1[8:1],,4/6qq3[8:3],,7,8,8>3[8:1],,
78,,15,2,4q6[2:1],,2h[4:1],,
,8h[4:1],,,1h[2:1],3,3,,
5h[2:1],6,6,,1v6[8:1],,13,4,
5-1[8:1],,5qq6[8:3]/8,,2,1,8-4[8:1],,
38,,17,7,2q4[8:5],,6p4[8:3],6,
,,,,8,2,4,{16}6,5,
{8}6,7,1,,6>3[8:1],,68,,
2<7[8:1],,24,,5-8[8:1],,5-1[8:1]*-2[8:1]/7,,
,,45,,2-6[8:1],,1-5[8:1],,
8-4[8:1],,7-3[8:1],,5>7[4:1],,7,6,
5,4,35,,1-4[8:1],,18,8h[4:1],
,6h[8:3],,7,7v4[8:1],4,47,,
2h[4:1]/6,,{16}4,1,4,1,{8}5<8[8:1],,35,4,
5>2[8:1],,15,8,7h[8:1],5h[8:1],4h[8:1],3V14[4:1]*V15[4:1],
,,,,8qq1[8:5],,,,
4>1[8:1],,,,4b-8[8:1]/7b-4[8:1],4b/7b,4b/7b,,
,,,,2,5,46,7,
8,1,24,3h[4:1],,8,57,6,
3,2,14,5h[4:1],,4,37,2-5[4:1],
,5-1[4:1],,1-6[4:1],,7,8,8,
4,5,27,,4b/5b,{16}6,5,6,5,7b,,
3,4,3,4,2b,,6,5,6,5,8b,,3,4,
3,4,1b,2,3,4,8b,7,6,5,34,,1b/5b,,,,
56,,4b/8b,,,,34,,1b/7b,,,,56,,2b/8b,,
,,18,,7,6,5,4,8,1,27,3,4b/7b,,,,
56,7,5b/8b,,,,24,1,4bq2[2:1]/8bq6[2:1],,,,,,,,,,
{8},,,,6h[4:1]/5h[4:1],,,4h[4:1]/3h[4:1],
,,5h[4:1]/2h[4:1],,,8h[4:1]/1h[4:1],,,
8h[4:1]/6h[4:1],,,1<3[4:3]/5<3[4:3],,,,,
,,,,45,,7,,
2h[4:1]/8h[4:1],,,,16,,56,6,
68,6,63,6,28,2,25,2,
27,2,23,2,{16}1,5,1,5,2,6,2,6,
3,7,3,7,4,8,4,8,5w1[8:1],,,,,,,,
{8}4s8[8:1]*z8[8:1],,4b,,3-8[8:1],,43,,
6-1[8:1],,56,,4v7[8:1],,2/4qq2[8:1]*-1[8:1],,
,,78,,1-5[8:1],,2-6[8:1],,
3-7[8:1],,4-8[8:1],,5<4[8:3],,2,3,
4,5,67,,8v5[8:1],,28,2h[4:1],
,3h[8:3],,1,1q5[8:1],7,17,,
6h[4:1]/8,,{16}5,7,5,7,{8}4>1[8:1],,46,5,
4<7[8:1],,48,1,2h[8:1],4h[8:1],5h[8:1],7>4[4:1]*V15[4:1],
,,,,8-6[8:1],,5/8-4[8:1],5,
8-6[8:1],3,8-4[8:1],1,1-3[8:1]/8-6[8:1],,8-4[8:1],,
4/8-6[8:1],,2-4[8:1]/8,,2-6[8:1]/5,,2-4[8:1]/7,7,
2-6[8:1],1,2-4[8:1],8,27,6,3,2,
{16}1,8,1,8,{8}2-5[8:1]/7-4[8:1],,2qq4[8:5]/7,,,,
6>4[8:1],,,,2b-6[8:1]/7b-3[8:1],2b/7b,2b/7b,,
,,,,46,35,24,1-4[8:1]/3,
,1-6[8:1]/2,,18,,{16}4,4,{8}5h[8:1],7h[8:1],
6h[8:1],1h[4:1],8,8,1b/2b,3b/8b,4b/7b,5h[4:1]/6h[4:1],
,,3b/5b,4b/7b,2b/8b,4h[4:1]/5h[4:1],,,
3b/7b,1b/5b,3b/4b,1b-5[8:1]/2b-5[8:1],,,,,
