&title=Side Quest King (KISAI remix)
&artist=ONDA, KIRA, monii
&first=0
&des=RailX
&des_5=RailX
&lv_5=13
&inote_5=(132){4},,,,{8}E4,
E6,{4},{8}E4,E6,{4},{1}8bx<3<6-2b[2:1],
{4}8b/E4,1b/E6,2b/7b,6h[4:1],
{8}3,3/6,4,6/3,5,3/6,3-1-4[4:1],5,
6,5,6-8-5[4:1],3,2,3,{4}2v4[8:1],
2/1V75[8:1],1/3v1[8:1],{2}3/6V82[8:1],
{8}4x/8,4/8,7/3,3/7,6v7[8:1]/2v3[8:1],2/6,{4},{8}8/4h[16:1],
B7,3/6h[16:1],B3,7/2h[16:1],B7,{4}6/3v2<8[4:1],
{2}8<3[4:1],{8}7-3-7[4:1],{16}2x,2x,{4},{8},{16}1,
8,1,8,2,7,2,7,3,6,3-1[8:1],6,{8},3x/6x-8[8:1],
5,6/3>1[8:1],4,{4}3/6<8[8:1],6/Ch[8:1],
8b/7h[16:1],{16}3,4,{8}3,{4}1b/8h[16:1],{16}3,4,{8}3,
{4}2b/1h[16:1],{16}3,4,{8}3h[8:3],5,6,7>2v4[4:1],7h[8:1],
,6,6,5h[16:1],,5h[8:1],4h[8:1],5h[8:1],
{4}B4/E4/B3,E8/B7/B8,{2}1bw5[8:1],
{8}3,3/4,{16}2,5,{8}2,6,6/5,{16}7,4,{8}7,
2,1/2,{16}2,8,{8}2,7,7/8,{16}7,1,{8}7,
2,7/2,{16}1,8,{8}8,7,1/8,{16}7<5[8:1],2,{8}2,
7-4[8:1],3bx,7-3qq8[8:3],2bx,{2}7bx,
{8}2b-4[8:1],7,2<8[8:1],7<5[8:1],2>4b[8:1],7,{4}2bx,
{8}6,2/7h[8:1],3,7/2h[8:1],{4}8qq8[8:1],8,
{8}1b-3[8:1],6,1<7[8:1],6>4[8:1],1>3b[8:1],6,{4}1bx,
{8}5,3/6h[8:1],4,6/3h[8:1],{32}7bx,6x,5x,4x,3x,2x,1x,8x,{4}7x/2h[4:1],
{8}Cfh[4:1],{4},{8}1x,8-5[8:1],{16}2,2,{8}8,1,
2,3,8-5>4[4:1],1,2,3,1-4-7[4:1],2,
{4}3,2xqq1>2[4:1],{2}2>5[4:1],
{8},7b,2b,8b,{2}1bs5b[8:1],
{8}7h[8:1],1h[8:1],8h[8:1],2h[8:1],{4}1V75[4:1],3h[8:1],
{2}4xh[2:1],{4}5x-8[8:1],{32}E6,B6,B7,E8f,{8},2h[32:1]/1h[32:1],
1h[32:1]/2h[32:1],2h[32:1]/1h[32:1],{16}3,8,4,7,5,6h[16:3],{4},{8}8h[32:1]/7h[32:1],
8h[32:1]/7h[32:1],7h[32:1]/8h[32:1],{16}1,6,2,5,3,4h[16:3],{4},{8}5h[32:1]/6h[32:1],
5h[32:1]/6h[32:1],5h[32:1]/6h[32:1],4>1v4[4:1],5,6,{4},{8}8<5[4:1],
6>3[4:1],{4}4>1[4:1],{2},{32}8x,
7,{16}6,{32}1,2,{16}3,{32}7,6,{16}5,{8}2pp1[4:1],,7h[4:1],{4},{32}2x,
3,{16}4,{32}7,6,{16}5,{32}1,2,{16}3,{8}8qq5[4:1],,3h[4:1],{4},{32}6x,
7,{16}8,{32}3,2,{16}1,{32}6,7,{16}8,{8}3p1[4:1],,5h[4:1],{4},5b/8h[8:1],
5b/1h[8:1],{2}5b/2bh[2:1],
{8}7b<5[8:1],2,7-1[8:1],2-4[8:1],7-5b[8:1],2,{4}7bx,
{8}3,7/2h[8:1],6,2/7h[8:1],{4}1v3-1[8:1],1,
{8}8b<6[8:1],3,8-2[8:1],3-5[8:1],8-6b[8:1],3,{4}8bx,
{8}4,6/3h[8:1],5,3/6h[8:1],{32}2bx,3x,4x,5x,6x,7x,8x,1x,{4}2x/7h[4:1],
{8}Cfh[4:1],{4},{8}8x,1-4[8:1],{16}7,7,{8}1,7,
6,5,4v1[4:1],5,6,7,8z4[4:1],1,
{4}2,2qq1>2[4:1],{2}2>5[4:1],
{8},7b/B4/E4,2b/E6/B5,8b/E4/D4/A4,{2}E6f/D6f/A5f/1bw5b[8:1],
{8}3,2/7,{16}6,3,{8}3,6,4/5,{16}6<2v4[4:1],3,{8}3,
{2},5<7p1[2:1]/4>2q8[2:1],
C,{4}5q8[2:1]/4-1[8:1],4bx,
{2}Cf,E8/E2/A6/D6/A5/D5/A4/D4/A3/B7/B2,
{8}4/3,4,6/5,5,3/4,4,5/6,5,
{4}4-2[8:1]/5-2[8:1],4-7[8:1]/5-7[8:1],4-1[8:1]/5-8[8:1],5/4,
7v6[8:1]/2v3[8:1],2v1[8:1]/7v8[8:1],2v4[8:1]/7v5[8:1],2/7pp2[8:7],
{1}6h[8:7],
{32}2x/7x,3,{16}4,{8}8,{32}2x/7x,6,{16}5,{32},1,{16},{32}2x/7x,3,4,5,6,7,8,1,{4}7/2h[4:1],
{8}7-5[8:1],8,1-3[8:1],8,{2}7p4[4:1],
{8}1h[16:1],B6/E6/B5,2h[16:1],B7/E7/B6,3h[16:1],E8/B8/B7,4-1[8:1],4,
4/6-1[8:1],6,6/4x>5[4:1],4,{32}4,{4},{32}4x,3x,2x,1x,8x,7x,6x,
5x,4x,3x,2x,{8}1xh[8:1],,8,7-4[8:1],{16}2,2,{8}7-1[8:1],3,
7<5[8:1],3,7pp7[4:1],3,{2}7qq7[4:1],
{16}1x,1,{8}8,{16}2,2,{8}7,{16}3,3,{8}6,{16}4,4,{8}5,
{16}4bx,5,4,5,4,5,{8}4h[4:1],,{32}5x,6x,7x,8x,1x-5[8:1],2x,3x,4x,{8}5x,
{4}6xh[1:1]/1x-3[8:1],1-5[8:1],1-3[8:1],1,
{8}4>1[8:1],5,4,5,4v1[8:1],5,{4}4,
{32}8x/2x,7,6,5,{8}1,{32}7x/1x,2,3,4,{8}8,{32}8x/2x,7,6,5,{8}1,{32}7x/1x,2,3,4,{8}8,
{4}2/8<5[8:1],8/2-5-8[4:1],{8}8-3-6-2[4:1],{4},{8}7h[8:3],
{4},3,{16}7,5,6,4,5,3,4,2,
{8}4-8[8:1],1-5[8:1],4,1,7,2qq1>5[8:3],{2},{4}8h[16:1],
8h[16:1],8h[16:1],
{8}8h[16:1],1,8h[16:1],1,{32}8,7,6,5,4,3,2,1,8,7,6,5,4,3,2,1,
{4}4h[2:3]/8-6[8:1],8-2[8:1],8-6[8:1],8-2[8:1],
8-6[8:1],8>3v5[4:1],{2},{24}B2,
{4},{12},,{24}B4,{8},E4,{4},{24}C,
{4},{12},,{24}B4,{8},E4,{16},8x,7x,6x,
{4}5xh[8:1],5/4h[8:1],4/5h[8:1],5/4h[8:1],
{8}3/6h[8:1],2,6/3h[8:1],7,3/6h[8:1],2,6/3h[8:1],7,
4/5h[8:1],B2/B3,5/4h[8:1],B7/B6,4/5h[8:1],B2/E3/B3,5/4h[8:1],B7/B6/E7,
{4}5h[4:1],6h[4:1],7h[4:1],8<3<6-2[8:3],
