&title=Arcahv
&artist=Feryquitous
&first=0
&des=Jinsokyo2
&lv_5=14
&inote_5=(191)
{1},,{32}8b/1b,7pp2[1:2]/2,6/3pp6[1:2]b,5/4,,,,,{1},,{4},,3h[2:1],,4h[4:1],5h[4:1],
{1}6-2-8-6[1:2]*-2-4-6[1:2],,,{4}1h[4:1],7h[2:1],,2h[4:1],8-6-1-5-2-4[1:2],{1}Cf,,
{4},,,5h[2:1],,6h[4:1],7h[4:1],{1}1<1[1:1]*q3[1:3],,5xq7[1:1],{4},,,{16}4,5,3,6,2,7,
1,8,{8}2-5[8:1],7,2x/B8/E1,,7-4[8:1],2,7x/B1/E1,,3-8[8:1],6,3x/B5/E5,,6-1[8:1],3,
6x/B4/E5,,2-6[8:1],5,2x/B7,,8-4[8:1],5,8x/B3,,2,{16}8,8,{8}1-5[8:1],6-8[8:1],1,6,,
B3/B4/E4,7-4[8:1],2,7x/B1/E1,,2-5[8:1],7,2x/B8/E1,,6-1[8:1],3,6x/B4/E5,,3-8[8:1],6,
3x/B5/E5,,7-3[8:1],4,7x/B2,,1-5[8:1],4,1x/B6,,7,{16}1,1,{8}8-4[8:1],3-1[8:1],8,3,
{16}5,6,7,8,{4}1bqq5[4:5]/5,,,{24}2,3,4,{8},,,,,{6},2h,8h,{8}1h[8:3],,,5h[8:3],,,2,6,
{6}3h,4h,5h,6h,7h,8h,{8}1v4[8:1],7,1/B6/B5,,8v5[8:1],2,8/B3/B4,,2q6[8:1],5,2/B1/E1,,
7p3[8:1],4,7/B8/E1,,2,2h[8:3],E2/E3,,6,6h[8:3],E6/E7,,3,{16}5,5,{8}2,4/3,6,7/8,
{16}1-5[8:1],8,2,7,1b<1[1:1],Cf,{1},{4},7-3[8:1],1,{8},{4}8>8[2:3],,,1q3[4:3]b,,,,,
7x-3-1-5-7[8:7],,,4bh[8:5],,{8},8,,4,{4},2-6<8-4>2[1:1]b,,,5h[4:3],,,{16}4,5,3,6,2,7,
1,8,{8}2,2,3>8[8:1],4,5/3,6,7v6-4-2v1[4:3],8xh[8:7],{1},{8}8,8,7>2[8:1],6,7/5,
4pp8[2:1],,3-1[8:1],,3,,2,7-2[8:1]/3-6[8:1],,7/3,,4,4,5>2[8:1],6,7/5,8,{16}1,7,1,
7h[16:15],{8},B4,B3,B2,,E1/B1,,E5/B5,6,6,5<8[8:1],4,5/3,2-6[8:1],1,8/2>5[8:1],,2,
{48},D6,A6,D7,A7,D8,A8,D1,A1,D2,A2,D3,{8}3x-7[8:1]/5x,,3-5[8:1],6-2[8:1],3,6,,,
{16}3,8,2,1,3,8,{48}4x-8[8:1],D5,A5,D6,A6,D7,A7,D8,A8,D1,A1,D2,{4}4x/A2,
{48}6x-2[8:1],D6,A5,D5,A4,D4,A3,D3,A2,D2,A1,D1,{8}6x/A8,,,7,7,8<5[8:1],1,8/2,,
{32}1,2,3,4,5,6,7,8,1,2,3,4,{8}1/5h[8:3],,,{16}E1,E5,E8,E4,E7,E3,E6,E2,{8}5x,5x,
4<7[8:1],3,4/2,1,8>6q8[4:3]b,7xh[8:7],{1},{8}1,1,2<7[8:1],3,4/2,5,6z2[4:3],3s7[8:5]b,
{1},{32}8b/1b,7-2-5-8-3[1:2]/2,6/3-6-1-4-7[1:2]b,5/4,,,,,{1},,{4},,6h[2:1],,5h[4:1],
4h[4:1],{1}3-7>3[1:2]*-7<3[1:2],,,{4}8h[4:1],2h[2:1],,7h[4:1],1-3-8-4-7-5[1:2]b,
{1}Cf,,{4},,,4h[2:1],,6h[4:1],2h[4:1],{1}1<1[1:1]*q3[2:7],,5xq7[2:3],,{4},B5/B4,{8},
E8/B7,,E2/B2,{4},E8/B4,,E2/B5,,B7/B2,{8},B5/E5,,,E4,E1,E6,,,B1/B3,,,B6/B8,,E7/E3,,,
E6/B6,,,E4/B3,,E8,E5,E2,,B7/B6,,B2/B3,,E8/E4,,,,E6/E2,,,,E1,,,C/E5,,,,,
{128}5xpp8<4[1:7],1bxpp4>8[1:7]b,{64},{32},{16},{8},{4},,,{1},,,,,,,{40}8b/1b,E8/E2,
B7/B2,B6/B3,E6/E4,{8}5xh[8:5]/4xh[8:5],,,,,,3b-6[16:1],{16},7b-2[16:1],,,4b-1[16:1],,
,8b-5[16:1],,,2b-6[16:1],,,7b,{8},8b<5[8:1],1,8-4[8:1]/2-4[8:1],,8/2-6[8:1],,1/2,8,
7/5,{16}4,4,{8}5,6/3,7-5[8:1]*-3[8:1],8/1,7,,{32}1b-5[8:1]b,8/2,7/3,6/4,{8},,,
{16}2,5,4,5,4,5,7,5,4,5,4,5,3,,1/2,,{12}8,5,6,1,4,3,{8},7<4[8:1]/8h[2:1],,,,,
4bh[2:1]/3qq8[8:3]b,,,,,,6,5,4-8[8:1],3,{16}4b/2bh[8:7],Cf,{8},,,,,,1bx,{24}3,4,5,6,
7,8,{32}1,2,3,4,5,6,7,8,{48}1,2,3,4,5,6,7,8,1,2,3,4,{8}5x-1[8:1],,6b/5b,7,8/1xh[2:1],
,,3,3,,2/4,{16}5,5,{8}4,3/6,2-4[8:1]*-6[8:1],1/8,2,,7,7-4[8:1],8,7/1,,2-5[8:1],1,2/8,
,6-1[8:1],4,6/5,,3-8[8:1],5,3,4,5-2[8:1],6,5b<4[8:5]b,6,7,8xh[4:3],,,,,,{32},7/1,6/2,
5/3,{16}4-8[8:1],,,,4b<4[8:13]*>4[8:13],Cf,{1},,{8}7<4[8:1],6,7/8,1,2>5[8:1],3,2/8,7,
6<1[8:1],7,6/5,4,3>8[8:1],2,3/4,5,6-2[8:1],6,3-7[8:1],3,5-1[8:1],5,4-8[8:1],4,
6-1[8:1],6,3-8[8:1],3,5-7[8:1],5,4-2[8:1],4,8>8[4:3],,,,,{16}1x,1x,{4}1xs5[4:3]b,,,,,
6h[4:1]/8h[4:1],{8},5h[4:1]/4h[4:1],,,1bh[4:1]/3h[4:1],,,5h[4:1]/4h[4:1],,,
7-4[8:1]/2-5[8:1],,,,1<6[8:1],2,3,4>1[8:1],5,6,7<4[8:1],8,1,2<7[8:1],3,4,5-1[8:1]b,,,
,8>3[8:1],7,6,5<8[8:1],4,3,2>5[8:1],1,8,7>2[8:1],6,5,4h[4:1],,2-5[8:1],,2b,7-4[8:1],
1,7b,1-5[8:1],8,1bw5[4:3]b,,{1},{8}E1,,,E3,,,E4,,,E5,,,E6,,,,E1,,,E7,,,E6,,,E5,,,E4,,
8z4[8:1]/1s5[8:1],7/2,8b/1b,,,,{16}2-5[8:1],1,3,1,2,,7-4[8:1],8,6,8,7,,{12}1,5,3,8,4,
6,8w4[8:1],4,2,,,,,,,{16}7-4[8:1]b,8,6,8,7,,2-5[8:1]b,1,3,1,2,,{12}8,4,6,1,5,3,
{8}7/2,E7/B7/B6/B2/B3/E3/Ch[8:1],
E
