&title=終わりなき物語
&artist=喜多村英梨
&first=0
&des=亚丝娜
&lv_6=13+
&inote_6=(150)
{16},,,,,,,,
,,,,,,,,
(150)
{16}
7>2[2:1],,,,,,,,
,,,,3p6[2:1],,,,
{16}
,,,,,,,,
5v4[2:1],,,,,,,,
{16}
,,,,8>4[8:3]*<4[8:3],,,,
,,,,,,,,
{16}
2>6[2:1],,,,,,,,
,,,,7qq3[2:1],,,,
{16}
,,,,,,,,
4qq8[2:1],,,,,,,,
{16}
,,,,5V71[8:3]*V31[8:3],,,,
,,,,,,,,
{16}
7>2[2:1],,,,,,,,
,,,,3p6[2:1],,,,
{16}
,,,,,,,,
5v4[2:1],,,,,,,,
{16}
,,,,8>4[8:3]*<4[8:3],,,,
,,,,,,,,
{16}
5-2[4:1]/6-1[4:1],,,,,,,,
,,,,4<7[4:1]/3>8[4:1],,,,
{16}
,,,,,,,,
(144)
{16}
4bqq1[2:3]/5bpp8[2:3],,,,,,,,
,,,,,,,,
{16}
,,,,,,,,
,,,,,,,,
||
1
(150)
{16}17,,3,4,,6,5,,
2-6[8:1],,38,,2,,,,
{16}48,,6,5,,3,4,,
7p3[8:1],,4b,,1b,,,,
{16}2>5[8:1],,,,8,,7,,
6v1[8:1],,,,2,,3,,
{16}48,,7,5,6,,7,,
8/2q6[8:1],,,,1,,,,
{16}7v4[8:1],,,,3,,2,,
15,,2,4,3,,2,,
{16}1>4[8:1]/6,,,,1<6[8:1],,,,
1w5[8:1],,,,1b,,,,
{16}7<4[8:1],,,,1,,2,,
3v8[8:1],,,,7,,6,,
{16}51,,2,4,3,,2,,1/7p3[8:1]
,,,,8,,,,
{16}2v5[8:1],,,,
6,,7,,
{16}84,,7,5,6,,7,,
83,,6,5,,3,4,,
{16}8>3[8:1]/2,,,,8b/1h[4:1],,,,
||2
{16}5<8[8:1],,,4,,,3,,
2q6[8:1],,,,1b,,,,
{16}7<4[8:1],,,8,,,1,,
2q6[8:1],,,,1b,,,,
{16}7<4[8:1],,,3,,,2,,
1q5[8:1],,,7,,,8,,
{16}1p5[8:1],,,4,,,3,,
2q6[8:1],,1b,,1b,,,,
{16}8<5[8:1],,,4,,,3,,
2q6[8:1],,,,1b,,,,
{16}7<4[8:1],,,8,,,1,,
2q6[8:1],,,,1b,,,,
{16}7<4[8:1],,,3,,,2,,
1h[8:1],,5,2,7,3,8h[8:1],,
{16}2b<6[4:1],,,5b,,,4b,,
4-7[8:1]*-8[8:1],,,,4b,,,,
||3
{16}5v8[8:1]/1v4[8:1],,,15,,,,,
6,,3qq8[2:1]/7-4[8:1],,,,7b,,
{16},,5,,5h[4:1],,,,
1,6,2,7,3,8,4,1,
{16}5-2[8:1]/8-4[8:1],,,58,,,,,
3,,6pp1[2:1]/2-5[8:1],,,,2b,,
{16},,4,,4h[4:1],,,,
8,3,7,2,6,1,5,8,
{16}4q8[8:1],,,2,2,,3,,
4-7[8:1]*-1[8:1],,,,4b,,,,
{16}5/3v8[8:1],,,7,7,,6,,
5h[8:1],,1,6,2,7,3,8,
{16}4>1[8:1],,,6,6,,5,,
4v1[8:1]*v7[8:1],,,,4b,,,,
{16}35,,2,,46,,7,,
34,,1,,56,,8,,
{16}2,1,3,7,5,6,2,4,
1,8,2,7,5,6,2,4,
{32}1,8,7,6,5,4,3,2,
1-5[8:1],8,7,6,5,4,3,2,
{16},,,,3b/7b,,,,
||4
{16}2>5[8:1]/8,,,6,2,,7,,
3h[8:1]/8,,{24}6,5,6,{16}4,,7,7,
{16}1h[24:5],,{24}7,6,5,{16}4/2h[24:5],,{24}5,6,7,
{16}8<5[8:1]/3>8[8:1],,,,8b/3b,,,,
{16}7<4[8:1]/2,,,3,7,,2,,
6h[8:1]/1,,{24}3,4,3,{16}5,,2h[8:1],,
{16}8,,6,5,,2,4,,
1>4[8:1]/8<5[8:1],,,,1b/8b,,,,
{16}2h[8:1],,6,3h[8:1],,7,4h[4:1],,8
,,{32}1b,8,7,6,{16}5b/3b,,,,
{16}7h[8:1],,3,6h[8:1],,2,5h[4:1],,1
,,{32}8b,1,2,3,{16}4b/6b,,7,,
{16}5w1[8:1]/3,,,,5b,,,,
4w8[8:1]/6,,,,4b,,,,
{16}35,,2,1,,7,8,,
{24}2,3,4,5,6,7,2,3,4,5,6,7,
{16}8p4[8:1]/1,,,3,8,,2,,
6h[8:1]/1,,{24}3,4,3,{16}5,,2,2,
{16}8h[24:5],,{24}2,3,4,{16}5/7h[24:5],,{24}4,3,2,
{16}1-5[8:1]/6-1[8:1],,,,1b/6b,,,,
{16}2>5[8:1]/7,,,6,2,,7,,
3h[8:1]/8,,{24}6,5,6,{16}4,,7h[8:1],,
{16}1,,3,4,,7,5,,
8-3[8:1]/1-5[8:1],,,,8b/1b,,,,
{16}6<2[4:1],,,1>5[4:1],,,4<8[4:1],,
,7>3[4:1],,,2>6[4:1],,,5<1[4:1],
{16},,8>4[4:1],,,3<7[4:1],,,
6<1[16:3],,,1,,,3,,
{16}2-6[8:1]*-5[8:1],,,,2b,,,,
8>3[8:1]*<5[8:1],,,,8bw4[8:1],,,,
{16}8b,,,,,,,,
8h[8:1]/2,,4,6,3,5,2,4,
||5
{16}1q5[8:1],,,6,1,,7,,
3h[8:1]/8,,{24}6,5,6,{16}4,,8,8,
{16}2h[24:5],,{24}7,6,5,{16}4/3h[24:5],,{24}8,7,6,
{16}5v8[8:1]/1v4[8:1],,,,1b/5b,,,,
{16}7<4[8:1]/2,,,3,7,,2,,
6h[24:5],,{24}2,3,4,{16}5/7h[24:5],,{24}1,2,3,
{16}4/8h[8:1],,5,7,,3,4,,
1,1,6,6,4,4,1,1,
{16}3>7[4:1],,,8<4[4:1],,,5>1[4:1],,
,2<6[4:1],,,7<3[4:1],,,4>8[4:1],
{16},,1<5[4:1],,,6>2[4:1],,,
3>8[16:3],,,8,,,6,,
{16}7q3[8:1]*v4[8:1],,,,7b,,,,
1<6[8:1]*>4[8:1],,,,1bw5[8:1],,,,
{16}1b,,,,,,2,,
1h[8:1]/7,,{24}6,5,4,{16}3,,28,,
{16}7,5,6,6,1,4,2,2,
8,4,6,3,5,1,7,2,
{16}1b/8b,,6,7b/5b,,3,2b/4b,,
8b-3[8:1],,,,8b/1h[4:1],,,,
||6
{16}5<8[8:1],,,,4,,3,,
2v5[8:1],,,,1,,8,,
{16}47,,{24}6,5,6,{16}5,,7,,
1/6v1[8:1],,,,2h[4:1]/6,,,,
{16}7<4[8:1],,,,8,,1,,
25,,{24}3,4,3,{16}4,,2,,
{16}8-5[8:1]/1-6[8:1],,,,1-4[8:1]/8-3[8:1],,,,
8-5[8:1]/1-6[8:1],,,,18,,,,
{16}4>1[8:1],,,,5,,6,,
7v4[8:1],,,,8,,1,,
{16}52,,{24}3,4,3,{16}4,,2,,
8/3v8[8:1],,,,7h[4:1]/3,,,,
{16}2>5[8:1],,,,1,,8,,
74,,{24}6,5,6,{16}5,,7,,
{16}2-6[16:1]/8b,,,2b/7b-4[8:1],,,7b,,
1b-5[16:1],,,7b-3[16:1]/1b,,,7b/4h[32:19],,
(140){16},,,,,,,
{48}8,37,26,
{1}1bpp6[4:10]/5bpp2[4:10],
{1},
{1},
{1},
