&title=Blooming Moon
&artist=BlueArchive
&first=0.04
&lv_5=13
&des_5=Sekiki
&inote_5=
(160){4},,,,,B8/B7/B3/Ch[2:1],
,1,
,1h[1:2],,5,
7,3,5,E7/E6/B6,
B3/B4/E4,{8}3,4,5/7,6,{16}7,6,{8}5,
{16}6,5,{8}4,{4}B2/B3/B6/Ch[1:1],,B8,
B1,1h[1:2],,5,
7,A8,A7,A6/E6,
D5/E5,{8}E3/B3/A3,{16}5xp1[8:1],6x,{8}7x,5,8xw4[8:1],8x,
{4}8b,E1/B8/B4/Ch[1:1],,2,
,4h[1:2],,7,
1,3,8,A7/B7,
A6/B6,{8}A5/B5/E6,{16}2,4,3,5,4,6,{8}C/5x-1[8:1],8x,
{4}5x,7b/4bq1<4[4:5],,1,
6,3,4>4[8:13],E3,
E1/B8,E7/B6,B4/C/B5,4,
3,2p7[4:3],,,,5b,
,4/6,
,E7/E4,4/3,E7/E2,
{8}7/8,8/1,{4}1h[4:1]/2h[4:1],,E8/E4,
2/6,E6/E2,{8}3/7,6/2,{4}5h[4:1]/1h[4:1],
,E8/A7/A3/D4,,6/5,
,3/4,5/6,{8}3/4,5/6,
7/8,2/1,{4}4h[4:1]/3pp7[4:3],{16},,,,A8,D8,{8}A7,
,,{4}6-3v1-5[4:3],1h[4:1],{16}D2,A2,{8}D3,
,,{4}4bx,{8}5h[8:1],7h[8:1],{4}1h[4:1],
2b,3b,{8}4h[8:1],2h[8:1],8h[4:1],6,
{4}5b,4/6bv4v2[4:3],{8}2,1,8,1,
{4}2b-6[4:1],1b<4[4:3],{2}1,
{4}2b,{8}2,2,2/4,2,2/3,2,
2/1,2,8/2,8,8/3,8,8/4,8,
5/8,{16}8,8,1,8,2,7,3,6,4,5,3,3,4,4,
1,1,6,6,{4}8b<4v6[16:11]*>4V28[24:17],{8},,,,,,7bx,
3h[8:1],5bx,8/7,6,7/5,
8,5/6,{4}7<4[8:1]/8>3[8:1],7/8,{8}1bx/2bx,2bx/3bx,
3bx/4bx,4/5,4>1<8[8:1],6<8v5[8:1],4x,6x,4,3,
2,1/6,7<4[8:1]/8>3[8:1],6/1,{4}7/8,{8}3b/2b,3b/4b,
4b/5b,5/6,1p5[8:1],8-3[8:1],1x,8x,2>4[8:1],7,
2q6[8:1],6,{4}2-8[8:1],{8}2-5[8:1]/7>1[8:1],6,{4}2/7,
{8}2b/6b,4b/8b,7>2[8:1],3v6[8:1],7x,3x,8,7,
{16}6,7,{8}5,{4}4-7[8:1]/3-8[8:1],3/4,{8}8<5[8:1]/7>3[8:1],{16}7/8,7/8,
{4}7b/8b,{16}8,7,6,5,{4}4b/8>4[2:1],{8}4,5,
6,7,{4}8bV63[2:1],{8}5,4,3-8[4:1],E8,
{4}C,{16}5,4,3,2,{4}5b/1q6[6:1],{8}1,7<4[8:1],
4p8[8:1],2,{4}3b,{8}5v2[8:1]*v3[8:1],2>6[8:1],,,{4}7bx,
{16}7p3[8:1],6,{8}8-2[8:1],7,8,6V84[8:1],4-2[8:1],
6,2,{4}8V64[16:3],{8}8b,3,2,1b-5[8:1],
8,7,{32}6x,7x,8x,1x,2x,3x,,,{4}6bV83[48:7],{8}2,1-5[8:1],
1,8/1,{4}6-2[8:1]*>5-3[8:1],6<1[8:1],{8}6/1bv6[8:1]*v4[8:1],2,
{4}1b>1p3[2:7],{32}1b/B1f/5b>5p7b[4:13],C,{16}B5,{1},,,,{4},{8},{4}C,
,,,E8,
,Ch[1:1],{8},,,,,,1,
1,1,1,1/E2,1/E3,
1/E4,1/E5/D5,6,6,{16}5,7,{8}6,B7/E8,8,
{16}7,5,{8}6,{16}3,4,{8}3,{16}4,5,{8}4,B6/B5,1h[8:1],
C,5,7,6,{16}6,4,{8}5,{16}B5/E5,4,3x,4x,
{8}B7/C,{16}5x,4x,{8}5x,E7,{16}3,4,{8}3,{16}6,5,{8}8,
{4}E7,{8}B2,E4/B4,B2,B4/E4,E2/5-7[8:1],E4/B4,
B2,B4/E4,E4/B4/8-6[8:1],B2,B4/E4,E2,E4/B4/5v8[8:1],B2,
B4/E4,E2,{4}Ch[1:1]/7p5[4:3],{16},,,,,,,,,,,,6,
7,8,1,{4}2b-8-4-6[8:1],2b-7[8:1]*z6[8:1],
2,8x/5x,,4,
,2,,1,
8,5/7h[4:1],5h[4:1],3h[4:1],
1h[4:1],{8}3h[4:1],5,6,7,{32}8,6,8,6,,,,,5,
7,5,7,,,,,{4}4q8[4:3],{16}4,3,4,2,,,{8}B2,
{4}A1/B1,2z6[4:3],{16}2,1,8,7,,,{8}E8,
{4}E8,8p4[4:3],8h[8:1],C,
E4,{16}3x,2x,1x,8x,7x,8x,1x,2x,{32}3,4,{16}5,{32}7,6,{16}5,
{4}8b,8-5[8:1]/1-4[8:1],,3-1[8:1]/8-6[8:1],
,5w1[8:1],,8<4[8:1],
8>4b[8:1],8-5[8:1],8-3b[8:1],8w4[8:1],
8,B8/C/B7/B1,3/5,{32}2,5,2,5,,,,,7,
5,7,5,,,,,{4}5x/4x,2/8,4v7[8:1],
4v2[8:1]*-1[8:1],4-8[8:1]*p6[8:1],4,7-4[8:1]*-5[8:1],
7,1b-6[8:1]/3b-6[8:1],3b/1b,5bw1b[8:1],
5b,7bp4b[4:3]/8bpp3[4:3],,,,,,B8,
E6,B4,E3,E2,
E1,E7,E3/B2/B3,E5,
{16}E8/E7/B7,,,,,B6,C,B2,
E
&inote_5=(160){4},,,,,B8/B7/B3/Ch[2:1],
,1,
,1h[1:2],,5,
7,3,5,E7/E6/B6,
B3/B4/E4,{8}3,4,5/7,6,{16}7,6,{8}5,
{16}6,5,{8}4,{4}B2/B3/B6/Ch[1:1],,B8,
B1,1h[1:2],,5,
7,A8,A7,A6/E6,
D5/E5,{8}E3/B3/A3,{16}5xp1[8:1],6x,{8}7x,5,8xw4[8:1],8x,
{4}8b,E1/B8/B4/Ch[1:1],,2,
,4h[1:2],,7,
1,3,8,A7/B7,
A6/B6,{8}A5/B5/E6,{16}2,4,3,5,4,6,{8}C/5x-1[8:1],8x,
{4}5x,7b/4bq1<4[4:5],,1,
6,3,4>4[8:13],E3,
E1/B8,E7/B6,B4/C/B5,4,
3,2p7[4:3],,,,5b,
,4/6,
,E7/E4,4/3,E7/E2,
{8}7/8,8/1,{4}1h[4:1]/2h[4:1],,E8/E4,
2/6,E6/E2,{8}3/7,6/2,{4}5h[4:1]/1h[4:1],
,E8/A7/A3/D4,,6/5,
,3/4,5/6,{8}3/4,5/6,
7/8,2/1,{4}4h[4:1]/3pp7[4:3],{16},,,,A8,D8,{8}A7,
,,{4}6-3v1-5[4:3],1h[4:1],{16}D2,A2,{8}D3,
,,{4}4bx,{8}5h[8:1],7h[8:1],{4}1h[4:1],
2b,3b,{8}4h[8:1],2h[8:1],8h[4:1],6,
{4}5b,4/6bv4v2[4:3],{8}2,1,8,1,
{4}2b-6[4:1],1b<4[4:3],{2}1,
{4}2b,{8}2,2,2/4,2,2/3,2,
2/1,2,8/2,8,8/3,8,8/4,8,
5/8,{16}8,8,1,8,2,7,3,6,4,5,3,3,4,4,
1,1,6,6,{4}8b<4v6[16:11]*>4V28[24:17],{8},,,,,,7bx,
3h[8:1],5bx,8/7,6,7/5,
8,5/6,{4}7<4[8:1]/8>3[8:1],7/8,{8}1bx/2bx,2bx/3bx,
3bx/4bx,4/5,4>1<8[8:1],6<8v5[8:1],4x,6x,4,3,
2,1/6,7<4[8:1]/8>3[8:1],6/1,{4}7/8,{8}3b/2b,3b/4b,
4b/5b,5/6,1p5[8:1],8-3[8:1],1x,8x,2>4[8:1],7,
2q6[8:1],6,{4}2-8[8:1],{8}2-5[8:1]/7>1[8:1],6,{4}2/7,
{8}2b/6b,4b/8b,7>2[8:1],3v6[8:1],7x,3x,8,7,
{16}6,7,{8}5,{4}4-7[8:1]/3-8[8:1],3/4,{8}8<5[8:1]/7>3[8:1],{16}7/8,7/8,
{4}7b/8b,{16}8,7,6,5,{4}4b/8>4[2:1],{8}4,5,
6,7,{4}8bV63[2:1],{8}5,4,3-8[4:1],E8,
{4}C,{16}5,4,3,2,{4}5b/1q6[6:1],{8}1,7<4[8:1],
4p8[8:1],2,{4}3b,{8}5v2[8:1]*v3[8:1],2>6[8:1],,,{4}7bx,
{16}7p3[8:1],6,{8}8-2[8:1],7,8,6V84[8:1],4-2[8:1],
6,2,{4}8V64[16:3],{8}8b,3,2,1b-5[8:1],
8,7,{32}6x,7x,8x,1x,2x,3x,,,{4}6bV83[48:7],{8}2,1-5[8:1],
1,8/1,{4}6-2[8:1]*>5-3[8:1],6<1[8:1],{8}6/1bv6[8:1]*v4[8:1],2,
{4}1b>1p3[2:7],{32}1b/B1f/5b>5p7b[4:13],C,{16}B5,{1},,,,{4},{8},{4}C,
,,,E8,
,Ch[1:1],{8},,,,,,1,
1,1,1,1/E2,1/E3,
1/E4,1/E5/D5,6,6,{16}5,7,{8}6,B7/E8,8,
{16}7,5,{8}6,{16}3,4,{8}3,{16}4,5,{8}4,B6/B5,1h[8:1],
C,5,7,6,{16}6,4,{8}5,{16}B5/E5,4,3x,4x,
{8}B7/C,{16}5x,4x,{8}5x,E7,{16}3,4,{8}3,{16}6,5,{8}8,
{4}E7,{8}B2,E4/B4,B2,B4/E4,E2/5-7[8:1],E4/B4,
B2,B4/E4,E4/B4/8-6[8:1],B2,B4/E4,E2,E4/B4/5v8[8:1],B2,
B4/E4,E2,{4}Ch[1:1]/7p5[4:3],{16},,,,,,,,,,,,6,
7,8,1,{4}2b-8-4-6[8:1],2b-7[8:1]*z6[8:1],
2,8x/5x,,4,
,2,,1,
8,5/7h[4:1],5h[4:1],3h[4:1],
1h[4:1],{8}3h[4:1],5,6,7,{32}8,6,8,6,,,,,5,
7,5,7,,,,,{4}4q8[4:3],{16}4,3,4,2,,,{8}B2,
{4}A1/B1,2z6[4:3],{16}2,1,8,7,,,{8}E8,
{4}E8,8p4[4:3],8h[8:1],C,
E4,{16}3x,2x,1x,8x,7x,8x,1x,2x,{32}3,4,{16}5,{32}7,6,{16}5,
{4}8b,8-5[8:1]/1-4[8:1],,3-1[8:1]/8-6[8:1],
,5w1[8:1],,8<4[8:1],
8>4b[8:1],8-5[8:1],8-3b[8:1],8w4[8:1],
8,B8/C/B7/B1,3/5,{32}2,5,2,5,,,,,7,
5,7,5,,,,,{4}5x/4x,2/8,4v7[8:1],
4v2[8:1]*-1[8:1],4-8[8:1]*p6[8:1],4,7-4[8:1]*-5[8:1],
7,1b-6[8:1]/3b-6[8:1],3b/1b,5bw1b[8:1],
5b,7bp4b[4:3]/8bpp3[4:3],,,,,,B8,
E6,B4,E3,E2,
E1,E7,E3/B2/B3,E5,
{16}E8/E7/B7,,,,,B6,C,B2,
E
