&title=Don't Stop the Game
&artist=DJ Myosuke
&first=0
&des=Lucy
&des_5=
&lv_5=14
&inote_5=(175){4},,,,{8}3/5,
3/5,3/5,3/5,4/6,4/6,4/6,4/6,
{16}3,7,3,7,3,7,3,7,2h[16:1],8h[16:1],2h[16:1],8h[16:1],2h[16:1],8h[16:1],2h[16:1],8h[16:1],
{2}1-5[8:1],{8}4h[8:1]/6-8[8:1],{4},{8}2,
{32}8,7,6,5,4,3,2,1,8,7,6,5,{8}4/3V51[4:1],,5b,{4}7b,
8b-4[8:1],{8}8/1,2-4[8:1],,5/2-6[8:1],,2/7-4[8:1],
,7/8,{4}1-5[8:1],{8}1/8,7,{16}6,5,6,5,
{4}6b-1[8:1],{8}6/4,3-1[8:1],,3/8-4[8:1],,8/1,
2b-6[8:1],3,2/1,8,{16}7,5,{8}6,4/3,{16}2,8,
{4}1b-5[8:1],{8}1/8,7-5[8:1],,7/4,3,{16}2,1,
{8}2-5[8:1],8-4[8:1],2,8,1,8/2,{16}7,3,6,4,
5,{8},{16}3/1,{8},{16}2,8,1,{8},{16}7/8,{8},6/5,
{4}2/4h[8:1],{16}2,4,3,4,1,5,4,5,{4}8bV64[16:3],
{8}8/1,2-5[8:1],3,{16}2/5,6,{8}7,{16}1,8,,3,{8}4,
{16}7,8,7-4[8:1],6,{8}7,{16}4,3,{8}2,{16}8,1,,6,5,7,
{8}4,1/2-5[8:1],3,{16}2/5,6,{8}7,{16}1,8,,3,{8}4,
{24}2b,1,8,6,,6,,4h[8:1],{12},{24}7b,8,1,3,,{8}3,{4}2/1bV35[16:3],
{8}1/8,7-4[8:1],6,{16}7/4,3,{8}2,{16}8,1,,6,{8}5,
{16}2,1,2-5[8:1],3,{8}2,{16}5,6,{8}7,{16}1,8,,3,4,2,
{8}5,{16}8,7,,6,5,7,{8}4,{16}1,2,,3,4,2,
{4}1z5[8:3]/5s1[8:3],{2},{16}7,8,7,8,
{4}7bqq4[2:1],8,1,{8}2,{16}3,4,
{4}3v8[4:1],5,{8}6,{16}7,8,,2,{8}1,
{4}8/3bqq8[2:1],4,5,{8}6,{16}7,8,
{8}7-4[8:1],1,7,3,{24}7b,8,1,3,{48},{16}4,2,5,1,6,
{8}8b,{16}6,5,{8}6,7/4,{16}6,5,{8}6,7/4,3,
5/2,{16}3,4,{8}3,5/2,{16}3,4,{8}3,5/2,6,
7/1,{16}3,4,,6,{8}5,8/2,{16}7,5,,2,{8}4,
{4}8/3b,5/2b,{8}7/1bw5[8:1],8,{4}1b,
{8}8b/2b,{16}7,5,{8}6,7/3,{16}2,8,4,5,{8}1>4[8:1],6/2,
1v6[8:1],8h[8:1],1,{16}7,7,{8}1,{16}6,2,4,3,{8}8,
7/1,{16}2,4,{8}3,6/2,{16}1,7,4,5,2,1,{8}3-5[8:1],
,3/7-4[8:1],,{16}7/4,3,{8}2,{16}8,1,,6,{8}5,
1b/7b,{16}2,4,{8}3,2/6,{16}7,1,5,4,{8}8<5[8:1],3/7,
8v3[8:1],1h[8:1],8,{16}2,2,{8}8,{16}3,7,5,6,{8}1,
2/8,7/5,6/4,5/3,{16}2,1,2,1,{24}2,3,4,8,7,6,
{8}1,7h[8:1]/3h[8:1],,{16}6/4,7/3,{8}8-5[8:1]/2-5[8:1],1,{4}2b/8b<1[4:15],
,2,,3,
,4,,5,
,6,,7,
,8,,8-5[8:1],
{2}8b>5[2:1],{4}7,8,
{2}1s5[2:1],{4}4,3,
2-7[8:1],4q8[4:1],8,1,
2qq2[4:1],7/2>6[4:1],{2}6-1[8:1]*-2[8:1],
{24}8b>3[8:1],7,6,5,{12},8-4[8:1],,6,{6}8p3[16:3],{12}7,8,{6},{12}1,
1,2,8/3,,6,5,5,6,7/4,,8,
{24}1b<6[8:1],2,3,4,{12},1-5[8:1],,3,{6}1q6[16:3],{12}2,1,{6},{12}8,
8,7,1/6,,3,4,4,3,5/2,7,1,
{24}7b-1[8:1],6,5,4,{12},7-5[8:1],,2,{6}7pp4[4:1],{12}4,7,{6},{12}3,
3,3,4/2,,6,6,6,6,7/5,,8,
{24}2b-8[8:1],3,4,5,{12},2-4[8:1],,7,{6}2qq5[4:1],{12}5,2,{6},{4}6bq1[3:1],
{2},{24}2,1,2,1,2,1,
{4}2bpp5[2:1],1,8,7,
{8}6v1[4:1],4h[16:3],{4},3h[8:1],2h[8:1]/8h[8:1],
{16}7qq4[2:1],{8},{16}8,{8},1,{16},2,{8},3,3,
4-7[8:1],2-5[8:1],4,2,{16}8p2[16:3],7,{8}6h[8:1],{4},{8}8b,
{16}3,5,{8}1b,6/2,1b/7,{16}6,4,{8}8b,7/3,
8/2,1/7,8/6,7/5,{16}4,6,3,5,2,6,1,7,
{24}8b,1,{12}2,4,5/3b,{6},{24}7,6,{12}5,1,8/2b,{6},5b/4b,
{12}2,1/3b,8,7,6/2b,3,4,5/1b,8,7,
{2}6/1-5[8:1],{8}4h[8:1]/6-8[8:1],{4},{8}2,
{32}8,7,6,5,4,3,2,1,8,7,6,5,{8}4/3V51[4:1],2,5b,{4}7b,
{8}8b/2b,{16}7,5,6,3,4,2,8,1,{8}7,6/5,7/3,
1/2-4[8:1],3,{16}2-6[8:1],8,,8,{8}2,7,1,8/2,
5b/4b,{16}7,1,5,3,4,2,8,1,{8}7,6/5,3/1-5[8:1],
,1b/7-4[8:1],8,7,{24}3b,2,1,8,{48},{16}4h[16:3],{8},7,
6/8b-4[8:1],1,2/8b<5[8:1],{16}3,3,{8}8b-3[8:1],{16}1,1,{8}8b,{16}2b,2b,
{8}1b-5[8:1],8b,7/1b,{16}6,6,{8}4b,{16}8,8,2b,1,3,7,
5h[8:1],{8},{16}5h[8:1],{8},6h[8:1]/4h[8:1],{16},5h[8:1]/3h[8:1],{8},{4}4h[8:1]/2-6[8:1],
{8},8b-4[8:1],1,{16}4,3,{8}2,{16}7,8,,2,{8}1,
{4}8V26[8:3]/3V51[8:3],{2},{8}7/8,7/8v3[8:1],
,8b/2h[4:1],,{24}1,8,7,{8}6w2[8:1],5/4,{4}6b,
{8}7b/8b,{16}1,6,4,5,3,8,2,7,{8}1,5/4,8/2-8[8:1],
,{32}7b,6,5,4,{16},{32}1b,2,3,4,{16},{32}8b,7,6,5,{16},{32}2b,3,4,5,{16},{8}8,
7/1b>4[8:1],6,5/1b-5[8:1],{16}6,6,{8}1b,{16}7,7,{8}1b,8b/2b,
3/4b,7/5b,8b/1,{24}2b,3,4,{8}6/5,{24}7b,6,5,{8}4/3,8b/1b,
{16}2,4,3,7,5,6,1,3,2,8,6,7,1,1,{8}8/2h[4:1],
,3b,5b/4,7/8b,{32}7b/1h[8:1],6,{16}5,,{32}2b/8h[8:1],3,{8}4,1b/2,
{4}3b/8bqq4[8:3],3,2,{16}2,4,2,4,
{4}2v5[8:1],2/1,{8}8b,{16}5,6,,1,8,2,
{4}7bqq4[8:3],2,1,{16}1,4,1,4,
{4}1-5[8:1],1/8,{24}8b,7,6,4b,3,2,7b,6,5,3b,2,1,
{8}8h[8:1],{32}1b,2,3,4,{8}5,7h[8:1],{32}8b,1,2,3,{8}4,6h[8:1],{32}7b,8,1,2,
{8}3,5h[8:1],{32}4b,3,2,1,{8}8,{24}7b,6,5,4h[8:1],{12},{24}8b,1,2,3h[8:1],{12},{8}4b,
6/5b,7b/6,7/8b,{16}1b,1,3b,3,5b,5,7b,7,
{32}1b,2,3,4,5b,6,7,8,1b,2,3,4,5b,6,7,8,{8}1bw5[8:1],8b/2b,{4}1b,
{1}1bV73[2:3]/7bV15[2:3],
E
