&title=girls.exe
&artist=rintaro soma
&first=0
&des=zirco
&des_6=zirco
&lv_6=15
&inote_6=(94){40},,,,,,,,,,,Ch[40:1],,,,A6,E6,B5,B4,E4/E1,,,,,,,{2}8<4<7V53<6[8:15],
E1,
{24}E3,{4},,,{16},,{24},{48}8,1,
{2}2>6>3V57<4[8:15],B4,
{1}B1,
{8}8>4V68<4V28[8:15],8h[8:1],,,,1h[8:1],,,3,
3h[8:1],,,,2h[8:1],{16},,,,3h[32:1],
3h[32:1],3h[32:1],3h[32:1],7h[32:1],7h[32:1],7h[32:1],7h[32:1],{32}1h[32:1]/B5,B4,1h[32:1]/B3,B2,1h[32:1]/B1,B8,1h[32:1]/B7,B6,5h[32:1]/E2,E3,5h[32:1]/E4,E5,5h[32:1]/E6,E7,5h[32:1]/E8,E1,
{48}D2/A1,A2,D3,A3,D4,A4,D5,A5,D6,A6,D7,A7,E2/B1,B2,E3,B3,E4,B4,E5,B5,E6,B6,E7,B7,{32}1,2h[16:3],8,7,6,5,4,3,1,4,1,5,2,6,3,7h[4:3],
,,,,,,{16}3bh[2:1],{32},,,,,,,,,,,,,,,,1h,1h,1h,1h,1-5[16:1],1h,1h,1h,
{16}2/8,2/8-6[16:1],{8}1,{16}7/4,8,4-6[16:1],5/3,2,2-8[16:1],4,2,3,2/4bh[16:1],,,7/3,
2-8[16:1],5,4,6h[32:1],2,5,1,4h[32:1],4h[32:1],5h[32:1]/D3,5h[32:1]/D4,{32}6>8[16:3],7,{16}5/8h[16:3],,,{8}6b,
{32}8,7,6,5,{16}4,4/8,{32}1,5,{48}1,2,3,{16}4h[16:1],8-3[16:1],{32}7,3,7-4[16:1],2,{16}6h[8:1],8,,7,
2,2,{32}4,1,6,1,8,2,6,8,6,2,{16}8h[32:15],{32},5,,,2,,,6-3[32:3],,,{16}4,{32},2,,,{16}6b,
8,2,5,{48}1,2,3,4,{96},{32}7,4,6,3,5,{16}2h[32:3],{32}4,4,{16}1,3,5,8h[16:1],6h[16:1],4h[16:1],
{32}2,6,4,6,4-6[16:1],7,3,8,{16}2-8[16:1],1/6b,4,3,2,{48}7v6-4[16:3],6,5,3,2,1,7,6,5,3-8[16:1],2,{24}1,,,,,{8}3b,
4h[8:1],{24}1,1,1,5,5,5,{48}2<8[8:1],3,4,8h[8:1],,,{16}5>3[8:1],5h[8:1],,,,7,
{8}6h[8:1],{32}1,1,{16}5,{48}2,3,4,6,7,8,2,3,4,6,7,8,{16}5,3,1,7,{32}5-1b[64:3],5,,,5,5,,,{16}5b,
6,7,4h[8:1],5,6,3h[8:1],4,5,2h[8:1],3,4,{32}5,4,{16}5,6,7/4,
8h[8:1],6,5,7h[8:1],5,4,6h[8:1],4,3,5h[8:1],3,2,{32}6,7,8,1,5,4,3,2,
{16}1h[8:1],6,5,2h[8:1],7,6,3h[8:1],8,7,4h[8:1],1,8,{32}7,5,{16}7,4,3/6,
5h[8:1],2,3,6h[8:1],3,4,7h[16:1],5,{32}6,4,6,4,7,3,6,2,{48}5,4,3,2,1,8,{64}3b,4,5,6,7,8,1,2,
{16}3h[16:1],{32}6,5,{16}6,7h[16:1],{32}3,4,{16}3,2h[16:1],{32}6,5,{16}6,7h[32:1],{32}3,4,{16}2,1b,1b,5h[32:1],5h[32:1],
{32}6,4,7,5,{16}7h[16:1],{32}3,5,2,4,{16}2h[16:1],{32}5,4,6,4,7,5,{16}7h[32:1],{32}4,6,3,5,{16}2b,2b,6h[32:1],6h[32:1],
7,{32}3,4,{16}3,1,{32}6,5,{16}6,7h[32:1],8h[32:1],{32}1,3,1,4,2,5,3,6,{8}4bh[8:1],{32}8,7,6,5,
1,4,1,5,1,6,2,4,2,5,2,6,3,7,4,8,{16}5bh[16:1],7b,{48}4w8[16:1],6,4,6,3,5,{4}3b,
{32}2/6,3,7,6,3,4,7,6,2,3,7,6,2,3,6,5,1/4,2,7,6,2,3,6,5,2,3,7,6,2,3,6,5,
1/4,2,6,7,3,4,7,6,4/5,3,2,1,2/6,3/7,4,5,8,4,8,3,8,2,8,1,7,1,6,1,5,1,4,1,
5,6,7,3,8,7,6,2,5,6,7,8,1/5,2,3,4,5/1,2,3,7,4,3,2,6,1,2,3,4,5/1,8,7,6,
5/1,2,3,4,5/2,3,4,5,6/3,5,4,3,2/5,4,3,2,{16}1bh[32:1],{48}1b,,6,2,6,2,6,2,6,{16}4,4h[8:1],5,6,
7/3,7/3,{32}1/5,2,3,4,8,7,3,2,1/5,2,3,4,5/1,8,7,6,5/2,1,8,7,6/4,7,8,1,2/5,6,7,8,
4/1,3,2/6,7,8/3,2,1/5,6,7/4,3,2/6,7,8/3,1,3,1,{48}4,5,6,7,8,1,{16}2/6,7,{48}5/1,4,3,2,1,8,3/7,4,5,6,7,8,
{64}6b/1,5,{32}4,{64},,7b/2,6,{16}5,{64}8b/3,7,{32}6,{16}2,1,{64}2b/7V13v8[32:7],3,{32}4,{64},,6/1b,2,{16}3,{64}8b/5h[16:1],1,{32}2,,4,5,6,7,6,5,4,3,4,5,6,
{64}1b/7,2,{32}3,{64},,2/6b,5,{16}4,{64}2b/8,3,{32}4,{64},,7b/1,6,{16}5,{32}2,4,{16}2,1/5,5/1,{32}1/5,2/6,3/7,4/8,{64}5h[#0.638298]/1-5[0.6383##0.1404],8,7,6,,4,3,2,1,8,7,6,,4,3,2,
(70.5){2}1,
{4},8<8>8<8>8<8>8[1:4],
(105.75){1}Ch[8:1],
Ch[8:1],
Ch[8:1],
Ch[8:1],
{8}4,4,,,,,,,4>8b[4:3],
4,{1},{4},,,{48}2h[4:3]/B5,
E5,{24}A4,{4},,,{16},,{24},{48}7h[400:299]/B4,
E5,{24}A5,,,,,,,,,,,,,,,,,{8}5w1[0.2837##0.1362],5b,
(211.5)3/7,6/5,4/2,{16}1,5,2-6[8:1],6,{8}3,{4}2/8,
{8}7v4[8:1],8/4V68[4:1],7,3,{4}1-3[8:1]*v4[8:1],1,
5/7-1[8:1],{8}7,{16}2,3,{8}4V28[4:1]*v7[8:1],8/5,{4}4,
{8}6-8[8:1],8,6/1-5[8:1],2-4[8:1],1-7[8:1],2-6[8:1],1,2,
8,5/7,6/4,{16}7,3,7-3[8:1],2,{8}6,{4}7/1,
{8}2v5[8:1],1/5V31[4:1],2,6,{4}8-6[8:1]*v5[8:1],8,
1b-3[8:1]*-5[8:1],1b-7[8:1]*-4[8:1],1b,{8}5>7[2:1],5b/3b,
,,,,3h[16:1],3h[16:1],{16}6b,2b,6b,2b,
5,3,7,1,5,3,6,2,8,3,5,1,6,4,8,3,
7,4,6,3,5,2,4,1,7,4,6,3,5,2,6,6,
4b,7,2,8,4,6,3,7,1,6,4,8,3,5,2,6,
1,4,2,5,3,6,4,7,1,4,2,5,3,6,4,7,
{4}C,,,3/7h[4:1],
{16}2,6,2,6,3,5,3,5,4w8[8:1],4,4,4,{4}4b,
{24}3,4,{12}5h[6:1],{24},,{8}8,8/5,{32}4b,3,2,1,{8}6,{16}2/5,3,6/4,7,
{8}8/3-1[8:1],2,3,5-7[8:1],6,5,{16}8b,1,2,3,
8/4,7,3,2,6,7,3,4,8/5,1,2,3,{4}5/4h[16:3],
{24}3/5,2,1,4/8,3,2,1/6,2,3,4,5,6,3/7,8,1-5[12:1],2,3,4,{4}5/1b,
{16}4h,3,6h,7,2h,3,6h,5,2/4h,5,6,7,{24}1/8h,2,3,5,6,7,
4,3,2,8/1,7,6,5/1,2,3,5/4,6,7,8/3,4,5-1[12:1],6,7,8,1/5b,2,3,4,{48},,,,{16}4/3,
7/6,4/3,7/6,4/3,7/6,4/3,7/6,3/2,6/5,2/3,6/5,1/2,7/6,2/1,7/6,
2/3,7/8,2/3,7/8,2/3,7/8,2/3,7/8,1/2,6/7,1/2,6/7,2/3,7/8,2/3,8/7,
{32}3,4,6,7,3,4,6,7,3,4,6,7,3,4,6,7,3,2,6,5,3,2,6,5,1,2,6,7,1,2,6,7,
3,2,8,7,3,2,8,7,3,2,8,7,3,2,8,7,1b,2,6,7,1b,2,6,7,3b,2,8,7,3b,2,8,7,
{4}1-5[8:1],{8}1/5,6,7-5[8:1]/3-1[8:1],5-1[8:1],{4}7/3,
{8}3-5[8:1],4/8,{16}3/7,8,1,2,3/4,2,1,8,7/4,3,2,1,
{8}6-8[8:1],5/7,6-2[8:1],4,6,7V53[4:1],8,1/7,
2,{24}1,8,7,6,5,4,3,2,1,{8}4h[8:1],{24}2,3,2,3,2>3<4<5<6<7>8>1>2[1:1],3,2/4,3/5,4/6,
{1}5/7h[8:7],
{2}8b,{24}1/4h[48:1],2,3,4,{48}5,2h[48:1],{24}6,7,8,1,7h[48:1]`2,3,4,
{4}5b-8[8:1],5,{16}3,1,{8}3-1[8:1],8/4,3/7,
7-5[8:1],6,7/1,8-2[8:1],1-7-1[4:1],8,,,3,
3h[4:1],{24}2,1,8,7,6,5,{16}2,3,{8}2-8[8:1],3/4,2,
{16}4,5,6,7,1,2,3,4,{8}8/5,6/4,{4}2/1>7[4:1]*-5[8:1],
1,8h[4:1],{32}5-7[8:1],4,3,2,{8}6/1-3[8:1],5,1,
6h[8:1],{16}4,8h[8:1],,1,{8}5/3,{32}1-5[8:1],2,3,4,5-1[8:1],6,7,8,{4}1b,
{16}8v3[8:1],7,6/3-1[8:1],5,{4}8/4,{24}5,6,7,2/8,,,{8}3,{24}8,7,6,
{8}5/1h[16:1],2h[16:1]/6h[16:1],{24}3h,5h,3h,5h,3h,5h,4h,4h,4h,4h,4h,4h,4bh[48:1],4bh[48:1],4bh[48:1],4bh[48:1],4bh[48:1],4bh[48:1],
{4}4>5b[4:1],5<5[4:13],{2}Cf,
{1},,,{32}E7/1b>8b[4:1],
E6,E5,E4,E3,E2,E1,E8,D1/A8,D2,D3,D4,D5,D6,D7,D8,
E
