&title=Ripples of Past Reverie
&artist=HOYO-MiX
&first=1.42
&des=TRG
&wholebpm=067
&lv_5=13+
&inote_5=(67.7){1},
{16},C,E4,,,B7,B5,,,B3,E5,,,,,,
,B8,E7,,,B4,B2,,,B6,E5,,,,,,
(68)
3^6[96:19],,
{96}5,,,,,,,5,,,,,{16},,
{96}7,,,,,,,7-4[96:17],,,,,{16},,,,,,3>7[16:4],2^7[16:3],
1^7[16:2],,,,,,6>2[16:4],5^2[16:3],4^2[16:2],,,,,,,,
(67)
3v6[96:19],,
{96}5,,,,,,,5,,,,,{16},,
{96}7,,,,,,,7qq6[96:23],,,,,{16},,
,,,,2>6[16:4],3^6[16:3],
4^6[16:2],,,,,,7s3[16:5],,7h[16:4],,,,,,,,
(67)
6^3[96:19],,
{96}4,,,,,,,4,,,,,{16},,
{96}2,,,,,,,2-5[96:15],,,,,
{16}(72),,,,
(67),,6<2[16:4],7^2[16:3],
8^2[16:2],,,,,,3q6[32:9],,3h[16:4],,,,
(67),,,,
(66.7)7h[96:19],,
{96}5,,,,,,,5h[96:24],,,,,{16},,
{96}3,,,,,,,3h[96:24],,,,,{16},,
{96}1,,,,,,,1pp5[69#32:17],,,,,
(69){16},,,,8h[16:2],,,,7h[16:2],,,,
(67)6^4v5^3[16:10],,,,,,,,,,,,,,,,
(67.3)4pp4qq4[24:18]/3h[16:4],,,,,,{24},3x,2x,{16}1xh[16:6],,,,,,,,
(68)1-5[96:19],,
{96}5,,,,,,,5qq4[16:4],,,,,{16},,
{96}6,,,,,,,6h[16:3],,,,,
{16},,,,{32}7h[32:3]/5,,,6h[32:3],,,5h[16:1],,
(66.5){16}3v8[96:19],,
{96}8,,,,,,,8>4[96:24],,,,,{16},,
{96}4,,,,,,,4q5[96:29],,,,,{16},,
{96}6,,,,,,,6,,,,,{16},,,,
{16}(68)7x-3^2[67.6#32:9]*^6-2[67.6#32:9],,,,,,,,,,,,{96}5<1[32:9]*qq5[32:9],,,,,,,46,,,,,,,,,,,,,,,,,
{16}5,,,,
(66.5),,{96}8V61[32:5],,,,,,,7,,,,,{16},,
{96}5V36[32:5],,,,,,,4,,,,,{16},,
{96}1,,,,,,,8-5[16:2]*-3[16:2],,,,,
(70){16},,,,(68.5),,
{96}2V83[32:5],,,,,,,1,,,,,{16},,
{96}7V58[32:5],,,,,,,6,,,,,{16},,
{96}3,,,,,,,2-5[32:4],,,,,
{16}(67.5),,1,8,7qq4[16:5],,7,6,5,4,3,2,(66.5)1^3-8[16:4]*-4-7[16:4],8,,,
(68.5)1,,,,,,1-4[16:2]/7,,B7/B6/E7,,,,
{96}5>1[32:9]*pp5[32:9],,,,,,,46,,,,,,,,,,,,,,,,,
(64){16}5,,,,
,,(67){96}2-4[96:7],,,,,,,4-1[32:3],,,,,
{16},,
{96}5-7[96:7],,,,,,,7-4[32:3],,,,,{16},,
{96}8,,,,,,,2-5[16:2]*-7[16:2],,,,,
{16}(68.5),,,,,,
(68){96}6-4[96:7],,,,,,,4-7[32:3],,,,,{16},,
{96}3-1[96:7],,,,,,,1-4[32:3],,,,,{16},,
{96}8,,,,,,,6-1[16:9],,,,,
(67.5){16},,,,,,,,,,,,,,8,7,6/5pp5[16:3],4,3,,,,1,2,3V14[32:6]*pp4[32:6]/4,,,,,,,,
(67.5){384}
2x>2^3^4^5^6^7^8^1^2^3^4^5[16:28]*>2^3^4^5^6^7^8^1^2^3^4^5[16:28],2?^3^4^5^6^7^8^1^2[64:47],,,,,,,,,,,,,,,,,,,,,,,,,,,,,,,,,,,,,,,,,,,,,,,,,,,,,,,,,,,,,,,,,,,,,,,,,,,,,,,,,,,,,,,,,,,,,,,
{4}D8/E8,D7/E7,D6/E6,D5/E5,D4/E4,D3/E3,D2/E2,
(67.5){384}1x<1^8^7^6^5^4^3^2^1^8^7^6[16:28]*<1^8^7^6^5^4^3^2^1^8^7^6[16:28],1?^8^7^6^5^4^3^2^1[64:47],,,,,,,,,,,,,,,,,,,,,,,,,,,,,,,,,,,,,,,,,,,,,,,,,,,,,,,,,,,,,,,,,,,,,,,,,,,,,,,,,,,,,,,,,,,,,,,
{4}D4/E4,D5/E5,D6/E6,D7/E7,D8/E8,D1/E1,D2/E2,
{16}3p6[16:4],E5,E6,,6p1[16:4],A7,A8,,1p4[16:4],D8,D7,,5h[16:2],,,,
6q3[16:4],E5,E4,,3q8[16:4],A2,A1,,8q5[16:4],D2,D3,,4h[16:2],,,,
{4}2qq6[16:8],E1/B1/B8,6>2[16:3],8pp2pp4pp6pp8[16:16]*pp2[16:4]*pp2pp4[16:8]*pp2pp4pp6[16:12]*>8[16:16],
8bqq6qq4qq2qq8[16.8#64:11]/Cf,,,,,,,1?xw5[4:14],
{1},,,
(66){4},,,
(71)6<4[128:403],
(68){2}5h[4:1],5h[4:1],4h[4:1],4h[4:1],
(67){4}3h[8:1],3h[8:1],2h[8:1],2h[8:1],
(67.5){8}1h[16:1],1h[16:1]/E4,1h[16:1]/C,1h[16:1]/E8,
2/6pp6b[16:3]*>1b[16:3],,
{48}D6,A5,D5,A4,D4,A3,D3,A2,D2,A1,,,
(66.5){16}E8/E4/Cf/B8/B7/B3/B4/D8/D4/A7/A8/A3/A4,,,,
45,,
(67.5){96}6/3-1[96:7],,,,,,,1-5[32:3],,,,,{16},,
{96}3/8-6[96:7],,,,,,,6-2[32:3],,,,,{16},,
{96}8/5,,,,,,,4qq5[68.2#16:4],,,,,
{16}(68.2),,,,E7/E8,,
(67){96}6-8[96:7],,,,,,,8-4[32:3],,,,,{16},,
{96}1-3[96:7]/6,,,,,,,3-7[32:3],,,,,{16},,
{96}1/5pp4[16:4],,,,,,,6,,,,,
{16}(68),,4,3,2qq6[16:5],,2,3,4,5,6,7,8^6-1[16:4]*-5-2[16:4],1,,,
(67)8,,,,,,8-5[16:2]/2,,B2/B3/E3,,,,
(69){96}4^3-6-1[67#16:4]*^5-2-7[67#16:4],,,,,,,35,,,,,{16},,
(67)4,,,,,,
(66.5){96}8b/7b-5[96:7],,,,,,,5-1[32:3],,,,,{16},,
{96}7/4-2[96:7],,,,,,,2-6[32:3],,,,,{16},,
{96}4/1,,,,,,,8qq1[16:4],,,,,
{16}(71),,,,(66)E3/E4,,
(68){96}2-4b[96:7],,,,,,,4-8b[32:3],,,,,{16},,
{96}5-7b[96:7]/2,,,,,,,7-3b[32:3],,,,,{16},,
{96}1/5pp7pp1^4b[16:10]*qq3qq1^6b[16:10],,,,,,,1x,B1,C,B5,A5f,
{16}(67.2),,,,,,,,,,,,,,5,6,
(67.5)5pp5[16:3]/7,4,3,,,,2,3,
(67.5){384}
4<4<4^5^6^7^8^1^2^3^4b[8:9]*<4^5^6^7^8^1^2^3^4[8:6]/5,4?^5^6^7^8^1^2^3^4[68#8:3],,,,,,,,,,,,,,,,,,,,,,,
{16}6,7h[16:20],,,,,,,,,,,,,,,,,,,,,,
(67.5){4}6-1b[16:13]/5,,,,
(64){16},B2,B5,,,B8,E3,,A6,B6,C,,
(61),,,,
(60.5),E7,B5,,,(59)E3,B2,,
(58)E1,(57)C,
{1}(13)E5h[16:5],
E
