&title=Theo‘s piano (幻想即興曲)
&artist=F.F.Chopin
&first=0.015
&des=leopard
&lv_5=14+
&inote_5=(100){2},
(154.24165)
{1}6h[1:1],
(154.14258)
{13}2,4,{196},{12}3,4,{196},{12}3,4,
{12}1,4,3,4,3,4,
(153.1589)
{12}2,{14}4,{12}3,4,{14}3,{12}4,
{12}1,4,3,5,4,6,
(156.14834)
{16},2x,3,4,8,7,6,5,3,2,1,8,7,6,5,4,
(155.94542)
{16},8x,7,6,3,2,1,8,5,4,3,2,1,8,7,6,
(157.06806)
{16},4x,3,2,7,6,{16}5,4,1,8,7,{16}6,5,{14}4,{16}3,2,
(157.27392)
{16}1,7,1,6,1,5,2,4,3,5,3,6,3,7,3,8,
(148.33127)
{16},1x,2,3,7,6,5,4,1,6,4,7,3,5,{18}1,,
(157.37705)
{16},6x,5,4,8,7,6,5,4,8,2,5,1,7,3,{14}6,
(157.79093)
{16}1,2,3,{15}4,{16}8,7,6,5,3,2,7,6,2,1,6,5,
(154.44015)
{16}8,4,1,5,2,6,3,7,4,8,2,6,1,{18}7,3,5,
(152.38095)
{20}2,{16}8b,7,{14}3,{16}5,2b,3,7,1,6b,5,{24}3,{16}8,3b,4,6,
(155.33981)
{18}3,{16}8x,3,{18}4,{16}2,7x,4,5,3,1x,3,5,4,8x,5,6,{96},
(155.64202)
{13}3,{16}8b,7,1,{16}5,2b,3,7,{16}1,6b,5,{24}3,{16}7,1b,2,5,
(153.7476)
{18}4,{16}8x,4,5,3,7x,3,4,3,1x,4,6,2,8x,3,5,
(156.25)
{16}1,6b,7,{14}2,{16}8,3b,2,6,{16}4,7b,8,2,{16}5,2b,1,8,
(155.84416)
{16}6,2x,6,5,7,2x,5,4,6,8x,6,4,5,1x,{14}7,4,
(154.93867)
{14}8,{16}3b,2,5,{16}1,6b,7,3,{16}4,2b,1,{24}5,{16}3,7b,8,4,
(151.89873)
{14}5,{16}1,5,4,6,8,6,5,6,7,6,5,6,7,{18}6,5,
(157.06806)
{16}6,1,4,{15}3,{16}5,2,4,3,6,2,4,3,5,1,5,4,
(155.13898)
{14}7,{16}3,6,{18}5,{16}8,4,6,5,7,4,6,5,8,3,6,{18}5,
(156.04681)
{16}7,8,5,{15}2,{16}7,8,6,1,7,8,6,2,8,1,5,{18}3,
(151.28358)
{16}1,2,7,4,1,2,8,3,1,2,6,3,{15}1,{16}2,8,4,
(153.74760)
{16},6x,7,8,3,2,5,6,2,1,6,7,1,8,7,8,{64},
(153.74760)
{16},4x,3,2,6,7,4,3,7,8,3,2,8,1,2,{14}1,
(158.52048)
{16},7x,6,{18}5,{16}3,4,1,2,7b,8,5,6,2,3,{14}7,8,
(153.55086)
{16}4,5,1,2,7,8,5,6,1,2,3,4,8,7,6,{18}5,
(153.2567)
{16},3x,2,1,7,6,8,{18}1,{16}6,5,1,2,5,4,2,3,
(159.46844)
{16}8,5,7,6,8b,{15}7,{16}6,5,1,4,2,3,1b,2,3,4,
(153.2567)
{16},6x,7,8,3,2,4,5,2,1,5,6,1,8,6,7,
(155.13898)
{16}2,1,3,8,3b,2,1,8,6,5,7,4,7b,6,5,4,
(153.35463)
{16}1,3,1,3,{18}1,{16}3b,2x,1x/5x,4x,3x/7x,6x,5x/1x,8x,3x/7x,2x,1x,
(154.14258)
{16}5,7,5,7,{14}5,{16}7b,6x,1x/5x,8x,3x/7x,2x,5x/1x,4x,3x/7x,6x,5x,
(158.73016)
{16}4b/8b,,2,2,5,5,8,8,3,3,6,6,1,1,4,{18}4,
(153.35463)
{16}7,7,2,2,5,5,8,{18}8,{16}3,3,6,6,1,1,4,4,{96},
(156.25)
{16}7b,,,,2,3,1/4,,1,2,3/8,,8,1,2/7,,{96},
(152.1877)
{16}7,8,1/6,,6,7,8/5,,5,6,7/4,,4,5,6/3,,
(154.63918)
{16}3,4,5/2,,2,3,4/1,,1,2,3/8,,8,1,27,,
(156.35179)
{16}7,8,1,,3x,4,3,,6x,5,6,,7x,8,7,,
(153.74760)
{6}2bpp6[2:1],,{48},,,,,,,{6}8,6,4,
(152.86624)
{6}4pp8[2:1],,{48},,,,,,,{96},{6}1,3,5,
(156.76029)
{8}8h[2:1],,,{24},,4h[48:1],{2}3<6[2:1],
(157.48031)
{2}7>2[2:1],{96},{2}3-7[2:1],
(151.32409)
{4}6<4[8:5],B8,2qq6[4:3],{36},,,,,,,3,,
(160.64257)
{2}4,3bV51[2:1],{64},{4}7-5[4:1],{36},,,,,,,2h[36:1],,
(151.51515)
{8}1>5[8:3],5,6,{96}7,,,,,,,,,,,,{12}E1,B1,B2,E7,B7,B8,
(155.64202)
{12}E5,B5,B6,E3,B3,B4,{196},{8}8,{96},,,,,,,,,,,2,,,,,,,,,6,,,,,,3,,,,,,4,,,,,
(153.2567)
{8}3qq4[2:1],,,5,5qq8[2:1],,,,
(153.7476)
{4}1q2[2:1],,1qq5[2:1],{36},,,,,,,3h[36:1],,
(157.27392)
{96}2h[96:11],,,,,,,,,,,{8},1,8,7>3[2:1],,,,{96},
(156.55577)
{8}5-8[16:3],,,,{12}3,4,3,7,5,6,
(149.90631)
{12}2,{24}4,3,4,,{96},{8}1-5[2:1],{96},{36},,8,,7,,{16},{8},4,{96},,,,,,,,,,,
(158.73016)
{2}6b<1[2:1],{96},{4}2>5[2:1],{36},,,,,,,7h[36:1],,
(155.84416)
{2}8z4[8:3],{12}B1,B2,E3,B7,B8,E1,
(154.04365)
{12}B5,B6,E7,B3,B4,E5,{8}1>5[16:5],,{16}5,6,7,8,
(152.5747)
{8}1<6[4:1],,,4,2>4[16:3],,,{96},,,,,,,,,,,
(157.27392)
{8}6h[2:1],,,,
(154.24165)
{16},4,3,2,7,8,6,1,5,2,4,3,6,7,8,1,
(156.25)
{16},7,6,5,2,1,3,8,4,7,5,6,3,2,1,{18}8,
(156.86275)
{16}5,4,6,5,7,6,8,7,{16}1b,2,3,4,2,3,4,{14}5,
(153.2567)
{16}6,2,7,3,8,4,1,5,8,4,7,3,6,2,5,1,
(155.64202)
{16},4,3,2,4,3,2,1,8,7,6,5,1,8,7,6,
(155.13898)
{16},1,2,3,1,2,3,4,5,6,7,8,4,5,6,7,
(154.63918)
{16}4/8,15,26,37,8,1,2,{18}3,{16}4/8,15,26,37,8,1,2,{14}3,
(155.04648)
{16}4,8,4,1,4,2,4,3,5,3,6,3,7,3,8,{15}2,
(157.04649)
{16}2,5b,6,3,{17}8,{16}3b,2,5,{18}4,{16}7b,8,2,{18}6,4b,3,{20}7,
(154.63918)
{16}1,2,3,4,15,6,7,8,51,2,3,4,15,4,3,2,
(160.21362)
{16}1,7b,6,4,{15}5,{16}1b,2,5,3,8b,7,1,6,3b,4,{14}1,
(153.63918)
{16}8,7,6,5,84,3,2,1,48,7,6,5,48,{14}5,6,{12}7,
(154.21362)
{16}2,8b,7,3,5,2b,3,7,{18}1,6b,{16}5,3,7,1b,{18}2,4,
(158.90631)
{16}5,6,7,8,51,2,3,4,15,6,7,8,51,{14}8,7,6,
(157.99868)
{13}3,{16}8b,7,1,{16}5,2b,3,7,{16}1,6b,5,3,{16}7,1b,2,{18}5,
(153.74760)
{16}6,4,8,4,2,4,5,3,7,3,1,3,4,2,{18}6,2,
(153.35463)
{16}8,2,3,1,5,1,7,1,6,4,8,4,2,4,5,3,
(156.76029)
{16}7,3,1,3,4,2,6,2,8,2,3,1,5,1,7,1,
(152.5747)
{16}6,4,8,4,2,4,5,3,7,3,1,3,4,2,6,2,
(157.27392)
{16}8,2,3,1,5,1,7,1,7,6,7,2,6,5,6,3,
(149.88337)
{48}8,,,3h[48:1],,,5,,4,1,,,{16}7,5,6,4,{48}2,,,5,4,,5,,6,3,,,{12}1,7,8,
(152.79093)
{48}6,,,4h[48:1],,,5,,3,7,,,{16}2,8,3,1,{48}4,,,6,5,,6,,3,7,,,{12}1,5,3,
(156.04681)
{48}7,,,1h[48:1],,,8,,2,6,,,{16}3,5,4,6,{48}3,,,1,2,,1,,4,8,,,{12}5,7,6,
(157.27392)
{16}1,2,3,4,8,7,6,5,7,8,1,2,6,5,4,3,
(153.06122)
{48}1,,,5h[48:1],,,8,,6,1,,,{16}7,3,5,4,{48}8,,,2h[48:1],,,5,,3,4,,,{12}7,5,6,
(154.93867)
{48}3b,,,1h[48:1],,,3,,2,4,,,8,,,6h[48:1],,,4,,7,5,,,8b,,,7h[48:1],,,2,,6,3,,,5,,,4h[48:1],,,6,,3,2,,,
(152.5747)
{48}8,,,7h[48:1],,,3,,6,4,,,{16}8,1,7,2,{48}5,,,3,4,,3,,5,2,,,{12}6,1,4,
(158.9404)
{48}2bx,,,4,3,,4,,2,5,,,1,,,7,8,,7,,1,6,,,4bx,,,6,5,,6,,4,7,,,3,,,1,2,,1,,3,8,,,
(155.64202)
{16}2,7,2,7,2,1b,2,37,8,15,6,37,4,15,2,{18}3,
(153.2567)
{16}4,8,4,8,4,8b,7,62,1,84,3,62,5,84,7,6,
(156.04681)
{14}Cf,,{128},{16}7bx,8x,1bx/4x,5x,6bx/2x,3x,4bx/8x,1x,2x/5bx,6x,7x/3bx,4x,5bx/1x,{14}2x,
(155.03876)
{16}3bx/6x,7x,8bx/4x,5x,6x/2bx,3x,4x/7bx,8x,1bx/5x,6x,7bx/3x,4x,5bx/8x,1x,2x/6bx,7x,
(156.04681)
{16}8b/4b,,,,7,6,8b/5,,8,7,6/1b,,1,8,7/2b,,
(153.1589)
{16}2,1,8/3b,,3,2,1/4b,,4,3,2/5b,,{18}5,4,{16}3/6b,,
(153.1588)
{16}6,5,4/7b,,{18}2,{16}1,2,1,3,4,3,4,6,5,6,5,
(155.64202)
{16}2,3,5,6,3,4,6,7,4,5,7,8,5,6,1,8,
(158.83521)
{16}4,7,4,7,5,6,B1,6,4,5,{15}B8,{14}5,{16}3,4,B2,5,
(151.51515)
{16}4,5,A1,6,5,7,E1,6,4,5,E2,5,3,4,E1,4,
(156.76029)
{16}3,5,4,6,5,7,B1,6,5,6,D2,7,4,5,E2,{15}6,
(154.34084)
{16}3,4,D1,5,4,6,B2,6,4,5,A1,7,3,5,C,6,
(157.79093)
{16}3,5,2,4,3,5,{18}A1,{16}6,5,7,E3,5,4,6,B8,{13}6,
(155.33981)
{16}5,7,E2,5,4,6,A3,6,5,7,A8,5,4,6,D2,{14}7,
{2}1b-6[2:1],,{96},{2}7-3[2:1],,E
